飞影3D论坛

 找回密码
 立即注册

QQ登录

只需一步,快速开始

扫一扫,访问微社区

3D超凡蜘蛛侠2(内置3D字幕版)(国英双语)
查看: 1791|回复: 349

[万众期待美国奇幻冒险大片【水形物语】完美中字DVD][2.09GB+1.39GB+1.72GB][英语]

  [复制链接]
  • TA的每日心情
    慵懒
    3 小时前
  • 签到天数: 453 天

    [LV.9]以坛为家II

    发表于 2018-1-12 15:41:19 | 显示全部楼层 |阅读模式
    本帖最后由 天涯的风 于 2018-1-12 15:48 编辑

    30869f02d637ce2a8c0b4e041762b8bb.jpg
    ◎译  名 水形物语/忘形水(港)
    ◎片  名 The Shape of Water
    ◎年  代 2017
    ◎产  地 美国
    ◎类  别 剧情/奇幻/冒险
    ◎语  言 英语
    ◎上映日期 2017-08-31(威尼斯电影节)/2017-12-01(美国)
    ◎豆瓣评分 7.8/10 from 1,680 users
    ◎豆瓣链接 https://movie.douban.com/subject/26752852/
    ◎片  长 123分钟
    ◎导  演 吉尔莫·德尔·托罗 Guillermo del Toro
    ◎主  演 莎莉·霍金斯 Sally Hawkins
          迈克尔·珊农 Michael Shannon
          理查德·詹金斯 Richard Jenkins
          奥克塔维亚·斯宾瑟 Octavia Spencer
          迈克尔·斯图巴 Michael Stuhlbarg
          道格·琼斯 Doug Jones
          大卫·休莱特 David Hewlett
          尼克·西塞 Nick Searcy
          斯图尔特·阿诺特 Stewart Arnott
          尼格尔·本内特 Nigel Bennett
          劳伦·李·史密斯 Lauren Lee Smith
          马丁·罗奇 Martin Roach
          阿莱格拉·富尔顿 Allegra Fulton
          约翰·卡普洛斯 John Kapelos
          摩根·凯利 Morgan Kelly
          马文·凯伊 Marvin Kaye
          德鲁·维尔戈维尔 Dru Viergever

    ◎简  介

      一个超凡脱俗的童话,1963年,美国冷战时期,在一个高度警戒的政府实验室里,在此工作的Elisa(萨莉·霍金斯饰)深陷沉寂(此前说过她是哑女)、与世隔绝,非常孤独,但当她和同事Zelda(奥克塔维亚·斯宾瑟饰)发现一项机密实验的秘密之后,她的人生从此改变。

    Video
    ID                                       : 0
    Format                                   : MPEG-4 Visual
    Format profile                           : Advanced Simple@L5
    Format settings                          : BVOP2 / QPel
    Format settings, BVOP                    : 2
    Format settings, QPel                    : Yes
    Format settings, GMC                     : No warppoints
    Format settings, Matrix                  : Default (H.263)
    Muxing mode                              : Packed bitstream
    Codec ID                                 : XVID
    Codec ID/Hint                            : XviD
    Duration                                 : 2 h 2 min
    Bit rate                                 : 1 725 kb/s
    Width                                    : 720 pixels
    Height                                   : 384 pixels
    Display aspect ratio                     : 1.85:1
    Frame rate                               : 30.000 FPS
    Color space                              : YUV
    Chroma subsampling                       : 4:2:0
    Bit depth                                : 8 bits
    Scan type                                : Progressive
    Compression mode                         : Lossy
    Bits/(Pixel*Frame)                       : 0.208
    Stream size                              : 1.48 GiB (87%)
    Writing library                          : XviD 1.2.1 (UTC 2008-12-04)

    Audio
    ID                                       : 1
    Format                                   : AC-3
    Format/Info                              : Audio Coding 3
    Format settings, Endianness              : Big
    Codec ID                                 : 2000
    Duration                                 : 2 h 2 min
    Bit rate mode                            : Constant
    Bit rate                                 : 256 kb/s
    Channel(s)                               : 2 channels
    Channel positions                        : Front: L R
    Sampling rate                            : 48.0 kHz
    Frame rate                               : 31.250 FPS (1536 SPF)
    Bit depth                                : 16 bits
    Compression mode                         : Lossy
    Delay relative to video                  : 26 ms
    Stream size                              : 225 MiB (13%)
    Alignment                                : Split accross interleaves
    Interleave, duration                     : 33  ms (1.00 video frame)
    Interleave, preload duration             : 500  ms
    Service kind                             : Complete Main

    1d1d74124f959c66a10e73a21efa75ae.jpg 1e8650932f42d09f9dec0b4c1e7eb3af.jpg 31bad722d3aae96940f7c01ddb0e5e70.jpg 37c5da3d69e823fdd03a97f1a9366db2.jpg 4415d381812aa38bc9473dcf992835c2.jpg 658710bfc31b8e9d2d4a4112ca9be33d.jpg
    723188e0fe82e0ca6360ec6b3f8a816c.jpg 773629b64f7a5f3546624c7cce778c52.jpg e567eedda6ca027a2898ea741ad2240d.jpg
    游客,如果您要查看本帖隐藏内容请回复
  • TA的每日心情
    慵懒
    3 天前
  • 签到天数: 354 天

    [LV.8]以坛为家I

    发表于 2018-1-12 15:53:26 | 显示全部楼层
    口碑不错,下来看看。
    回复 支持 反对

    使用道具 举报

  • TA的每日心情
    开心
    前天 09:56
  • 签到天数: 200 天

    [LV.7]常住居民III

    发表于 2018-1-12 15:56:22 | 显示全部楼层
    感谢楼主分享
    回复 支持 反对

    使用道具 举报

  • TA的每日心情
    奋斗
    3 天前
  • 签到天数: 297 天

    [LV.8]以坛为家I

    发表于 2018-1-12 15:58:11 | 显示全部楼层
    口碑不错,下来看看
    回复 支持 反对

    使用道具 举报

  • TA的每日心情
    开心
    3 天前
  • 签到天数: 102 天

    [LV.6]常住居民II

    发表于 2018-1-12 16:07:03 | 显示全部楼层

    口碑不错,下来看看
    回复 支持 反对

    使用道具 举报

  • TA的每日心情
    无聊
    昨天 11:37
  • 签到天数: 82 天

    [LV.6]常住居民II

    发表于 2018-1-12 16:08:09 | 显示全部楼层
    感谢楼主分享
    回复 支持 反对

    使用道具 举报

  • TA的每日心情
    难过
    昨天 11:31
  • 签到天数: 632 天

    [LV.9]以坛为家II

    发表于 2018-1-12 16:09:59 | 显示全部楼层
    thanks for share
    回复 支持 反对

    使用道具 举报

  • TA的每日心情
    开心
    昨天 16:02
  • 签到天数: 1083 天

    [LV.10]以坛为家III

    发表于 2018-1-12 16:40:54 | 显示全部楼层
    新片值得观看,谢楼主共享!
    回复 支持 反对

    使用道具 举报

  • TA的每日心情
    开心
    昨天 09:16
  • 签到天数: 714 天

    [LV.9]以坛为家II

    发表于 2018-1-12 16:43:13 | 显示全部楼层
    谢谢楼主分享!
    回复 支持 反对

    使用道具 举报

    您需要登录后才可以回帖 登录 | 立即注册

    本版积分规则

    本站资源均来自互联网,如果侵犯了您的权益请与我们联系,我们将在24小时内删除。

    QQ|申请友链|小黑屋|手机版|Archiver|站长工具|飞影3D论坛  

    GMT+8, 2018-1-21 03:14 , Processed in 0.156275 second(s), 28 queries .

    Powered by Discuz! X3.2

    © 2001-2013 Comsenz Inc.

    ICP备案:黔ICP备14003922号-4
    快速回复 返回顶部 返回列表