飞影3D论坛

 找回密码
 立即注册

QQ登录

只需一步,快速开始

扫一扫,访问微社区

3D超凡蜘蛛侠2(内置3D字幕版)(国英双语)
查看: 1446|回复: 431

[左右][3D收藏版【终结者2:审判日】3D出屏特效中字-杜比TrueHD上译国语][1080P][MKV][15.79G][国英双语][BluRay.Half-SBS.x264.AC3.DTS-小曹]

  [复制链接]
  • TA的每日心情
    开心
    18 小时前
  • 签到天数: 1113 天

    [LV.10]以坛为家III

    发表于 2017-12-3 20:05:29 | 显示全部楼层 |阅读模式
    本帖最后由 13879384998 于 2017-12-3 21:40 编辑

    120957lr6qkcq7z65k347d.jpg
    詹姆斯·卡梅隆-导演作品..3D重映版重回大银幕  上映日期: 2017-08-25(北美 3D)

    此片超一流立体效果,和终结者5立体效果如出一辙! 高参数压制 全屏优良画质!

    默认正版重混杜比TrueHD5.1-2799Kbps上译国语+正版上译国语DD5.1-448-Kbps+AC3-英语原音

    音轨由-jack70 大神重混制作   分享者johyou 一并感谢!
    全网唯一最优质版本.典藏版

    做种不易,费时费力,请理性回帖勿灌水!
    aaa.jpg
    ◎译  名 终结者2/终结者2:审判日/终结者2:末日审判/终结者续集:世界末日/魔鬼终结者2/未来战士2
    ◎片  名 Terminator 2: Judgment Day
    ◎年  代 1991
    ◎国  家 美国/法国
    ◎类  别 动作/科幻
    ◎语  言 英语/杜比TrueHD.5.1上译国语
    ◎字       幕   3D出屏特效中字
    ◎上映日期 1991-07-03
    ◎IMDb评分  8.5/10 from 642,381 users
    ◎IMDb链接  http://www.imdb.com/title/tt0103064/
    ◎豆瓣评分 8.5/10 from 100,190 users
    ◎豆瓣链接 http://movie.douban.com/subject/1291844/
    ◎片  长 136 分钟剧场版
    ◎导  演 詹姆斯·卡梅隆 James Cameron
    ◎主  演 阿诺·施瓦辛格 Arnold Schwarzenegger
          琳达·汉密尔顿 Linda Hamilton
          爱德华·福隆 Edward Furlong
          罗伯特·帕特里克 Robert Patrick
    120950a7ss1979rk1o97z9.jpg
    ◎简  介

      上一部中,超级电脑“天网”阻止人类抵抗领袖John Connor诞生的行动失败,时隔13年后,在“审判日”到来之前,“天网”派出了更加先进的生化机器人T-1000(Robert Patrick 饰)从公元前2029年回到洛杉矶追杀已经长大的John Connor,与此同时,John也派出了机器人T-800 Model 101(Arnold Schwarzenegger 饰)回去保护年幼的自己。
      此时,Sarah Connor(Linda Hamilton 饰)因为怪异的言行而住进了精神疗养院,John Connor(Edward Furlong 饰)则和养父母住在一起,行为叛逆。T-800 Model 101找到他们,在逃避T-1000追杀过程中,获得了二人的信任。
      为了改变未来的历史,挽救人类的命运,Sarah Connor、John Connor和T-800 Model 101找到了“天网”之父,Dr. Peter Silberman(Earl Boen 饰),说服他销毁一切有关“天网”的资料,此时,警察和T-1000同时赶来,他们陷入了多方争斗中。

    ◎获奖情况

      第64届奥斯卡金像奖 (1992)
      最佳摄影(提名) Adam Greenberg
      最佳剪辑(提名) Conrad Buff IV / Mark Goldblatt / Richard A. Harris
      最佳视觉效果 斯坦·温斯顿 / 丹尼斯·穆伦 / Gene Warren Jr. / Robert Skotak
      最佳音响 嘉里·瑞德斯托姆 / 李·奥尔洛夫 / Gary Summers / 汤姆·约翰逊
      最佳音效剪辑 嘉里·瑞德斯托姆 / Gloria S. Borders
      最佳化妆 斯坦·温斯顿 / Jeff Dawn

      第15届日本电影学院奖 (1992)
      最佳外语片(提名)

    3D终结者2:审判日.3D出屏特效中字-内封杜比TrueHD.5.1上译国语.1991.1080p.BluRay.Ha.jpg 3D终结者2:审判日.3D出屏特效中字-内封杜比TrueHD.5.1上译国语.1991.1080p.BluRay.Ha.jpg 3D终结者2:审判日.3D出屏特效中字-内封杜比TrueHD.5.1上译国语.1991.1080p.BluRay.Ha.jpg 3D终结者2:审判日.3D出屏特效中字-内封杜比TrueHD.5.1上译国语.1991.1080p.BluRay.Ha.jpg 3D终结者2:审判日.3D出屏特效中字-内封杜比TrueHD.5.1上译国语.1991.1080p.BluRay.Ha.jpg 3D终结者2:审判日.3D出屏特效中字-内封杜比TrueHD.5.1上译国语.1991.1080p.BluRay.Ha.jpg 3D终结者2:审判日.3D出屏特效中字-内封杜比TrueHD.5.1上译国语.1991.1080p.BluRay.Ha.jpg 3D终结者2:审判日.3D出屏特效中字-内封杜比TrueHD.5.1上译国语.1991.1080p.BluRay.Ha.jpg 3D终结者2:审判日.3D出屏特效中字-内封杜比TrueHD.5.1上译国语.1991.1080p.BluRay.Ha.jpg 3D终结者2:审判日.3D出屏特效中字-内封杜比TrueHD.5.1上译国语.1991.1080p.BluRay.Ha.jpg 3D终结者2:审判日.3D出屏特效中字-内封杜比TrueHD.5.1上译国语.1991.1080p.BluRay.Ha.jpg 3D终结者2:审判日.3D出屏特效中字-内封杜比TrueHD.5.1上译国语.1991.1080p.BluRay.Ha.jpg 3D终结者2:审判日.3D出屏特效中字-内封杜比TrueHD.5.1上译国语.1991.1080p.BluRay.Ha.jpg 3D终结者2:审判日.3D出屏特效中字-内封杜比TrueHD.5.1上译国语.1991.1080p.BluRay.Ha.jpg 3D终结者2:审判日.3D出屏特效中字-内封杜比TrueHD.5.1上译国语.1991.1080p.BluRay.Ha.jpg 3D终结者2:审判日.3D出屏特效中字-内封杜比TrueHD.5.1上译国语.1991.1080p.BluRay.Ha.jpg 3D终结者2:审判日.3D出屏特效中字-内封杜比TrueHD.5.1上译国语.1991.1080p.BluRay.Ha.jpg 3D终结者2:审判日.3D出屏特效中字-内封杜比TrueHD.5.1上译国语.1991.1080p.BluRay.Ha.jpg 3D终结者2:审判日.3D出屏特效中字-内封杜比TrueHD.5.1上译国语.1991.1080p.BluRay.Ha.jpg 3D终结者2:审判日.3D出屏特效中字-内封杜比TrueHD.5.1上译国语.1991.1080p.BluRay.Ha.jpg 3D终结者2:审判日.3D出屏特效中字-内封杜比TrueHD.5.1上译国语.1991.1080p.BluRay.Ha.jpg
    General
    :\3D终结者2:审判日.3D出屏特效中字-内封杜比TrueHD.5.1上译国语.1991.1080p.BluRay.Half-SBS.x264.AC3.DTS-小曹.mkv
    Format                                   : Matroska
    Format version                           : Version 4 / Version 2
    File size                                : 15.8 GiB
    Duration                                 : 2 h 16 min
    Overall bit rate mode                    : Variable
    Overall bit rate                         : 16.5 Mb/s
    Encoded date                             : UTC 2017-12-03 03:41:44
    Writing application                      : mkvmerge v8.8.0 ('Wind at my back') 32bit
    Writing library                          : libebml v1.3.3 + libmatroska v1.4.4


    Video
    ID                                       : 1
    Format                                   : AVC
    Format/Info                              : Advanced Video Codec
    Format profile                           : High@L4.1
    Format settings, CABAC                   : Yes
    Format settings, ReFrames                : 4 frames
    Codec ID                                 : V_MPEG4/ISO/AVC
    Duration                                 : 2 h 16 min
    Bit rate                                 : 14.0 Mb/s
    Width                                    : 1 920 pixels
    Height                                   : 800 pixels
    Display aspect ratio                     : 2.40:1
    Frame rate mode                          : Constant
    Frame rate                               : 23.976 (23976/1000) FPS
    Color space                              : YUV
    Chroma subsampling                       : 4:2:0
    Bit depth                                : 8 bits
    Scan type                                : Progressive
    Bits/(Pixel*Frame)                       : 0.380
    Stream size                              : 13.2 GiB (84%)
    Title                                    : 3D终结者2:审判日.3D出屏特效中字-内封杜比TrueHD.5.1上译国语.1991.1080p.BluRay.Half-SBS.x264.AC3.DTS-小曹
    Writing library                          : x264 core 148
    Encoding settings                        : cabac=1 / ref=3 / deblock=1:0:0 / analyse=0x3:0x113 / me=hex / subme=7 / psy=1 / psy_rd=1.00:0.00 / mixed_ref=1 / me_range=16 / chroma_me=1 / trellis=1 / 8x8dct=1 / cqm=0 / deadzone=21,11 / fast_pskip=1 / chroma_qp_offset=-2 / threads=3 / lookahead_threads=1 / sliced_threads=0 / nr=0 / decimate=1 / interlaced=0 / bluray_compat=0 / constrained_intra=0 / bframes=3 / b_pyramid=2 / b_adapt=1 / b_bias=0 / direct=1 / weightb=1 / open_gop=0 / weightp=2 / keyint=250 / keyint_min=23 / scenecut=40 / intra_refresh=0 / rc_lookahead=40 / rc=abr / mbtree=1 / bitrate=14000 / ratetol=1.0 / qcomp=0.60 / qpmin=0 / qpmax=69 / qpstep=4 / ip_ratio=1.40 / aq=1:1.00
    Default                                  : Yes
    Forced                                   : No


    Audio #1
    ID                                       : 2
    Format                                   : TrueHD
    Codec ID                                 : A_TRUEHD
    Duration                                 : 2 h 16 min
    Bit rate mode                            : Variable
    Bit rate                                 : 1 521 kb/s
    Maximum bit rate                         : 2 799 kb/s
    Channel(s)                               : 6 channels
    Channel positions                        : Front: L C R, Side: L R, LFE
    Sampling rate                            : 48.0 kHz
    Frame rate                               : 1 200.000 FPS (40 spf)
    Compression mode                         : Lossless
    Stream size                              : 1.45 GiB (9%)
    Default                                  : Yes
    Forced                                   : No


    Audio #2
    ID                                       : 3
    Format                                   : AC-3
    Format/Info                              : Audio Coding 3
    Format settings, Endianness              : Big
    Codec ID                                 : A_AC3
    Duration                                 : 2 h 16 min
    Bit rate mode                            : Constant
    Bit rate                                 : 448 kb/s
    Channel(s)                               : 6 channels
    Channel positions                        : Front: L C R, Side: L R, LFE
    Sampling rate                            : 48.0 kHz
    Frame rate                               : 31.250 FPS (1536 spf)
    Bit depth                                : 16 bits
    Compression mode                         : Lossy
    Stream size                              : 438 MiB (3%)
    Service kind                             : Complete Main
    Default                                  : No
    Forced                                   : No


    Audio #3
    ID                                       : 4
    Format                                   : AC-3
    Format/Info                              : Audio Coding 3
    Format settings, Endianness              : Big
    Codec ID                                 : A_AC3
    Duration                                 : 2 h 16 min
    Bit rate mode                            : Constant
    Bit rate                                 : 640 kb/s
    Channel(s)                               : 2 channels
    Channel positions                        : Front: L R
    Sampling rate                            : 48.0 kHz
    Frame rate                               : 31.250 FPS (1536 spf)
    Bit depth                                : 16 bits
    Compression mode                         : Lossy
    Delay relative to video                  : -42 ms
    Stream size                              : 626 MiB (4%)
    Service kind                             : Complete Main
    Default                                  : No
    Forced                                   : No


    注意!部分3D播放设备是不支持杜比TrueHD音轨的..播放时会无声音等各种情况,如不支持播放把该音轨提出 保留AC3音轨即可。
    游客,如果您要查看本帖隐藏内容请回复


    评分

    参与人数 1飞币 +100 收起 理由
    天涯的风 + 100 很给力!

    查看全部评分

  • TA的每日心情
    开心
    3 天前
  • 签到天数: 179 天

    [LV.7]常住居民III

    发表于 2017-12-3 20:15:33 | 显示全部楼层
    重温经典 回忆多多 谢谢分享 祝你好运
    回复 支持 反对

    使用道具 举报

  • TA的每日心情
    开心
    6 天前
  • 签到天数: 34 天

    [LV.5]常住居民I

    发表于 2017-12-3 20:16:25 | 显示全部楼层
    绝对经典啊,谢谢分享!!
    回复 支持 反对

    使用道具 举报

  • TA的每日心情
    开心
    1 小时前
  • 签到天数: 733 天

    [LV.9]以坛为家II

    发表于 2017-12-3 20:16:35 | 显示全部楼层
    不错不错!多谢分享!!!!!!!!
    回复 支持 反对

    使用道具 举报

  • TA的每日心情
    奋斗
    13 小时前
  • 签到天数: 145 天

    [LV.7]常住居民III

    发表于 2017-12-3 20:16:42 | 显示全部楼层
    不错的资源,楼主辛苦了!
    回复 支持 反对

    使用道具 举报

  • TA的每日心情
    擦汗
    18 小时前
  • 签到天数: 250 天

    [LV.8]以坛为家I

    发表于 2017-12-3 20:19:03 | 显示全部楼层
    ganxielouzhufenxiang

    评分

    参与人数 1飞币 -50 收起 理由
    13879384998 -50 灌水

    查看全部评分

    回复 支持 反对

    使用道具 举报

  • TA的每日心情
    开心
    11 小时前
  • 签到天数: 468 天

    [LV.9]以坛为家II

    发表于 2017-12-3 20:19:09 | 显示全部楼层
    谢谢楼主分享
    回复 支持 反对

    使用道具 举报

  • TA的每日心情
    开心
    半小时前
  • 签到天数: 839 天

    [LV.10]以坛为家III

    发表于 2017-12-3 20:20:00 | 显示全部楼层
    感谢提供下载
    回复 支持 反对

    使用道具 举报

    该用户从未签到

    发表于 2017-12-3 20:25:37 | 显示全部楼层
    知道了 不错~~~













    定做工作服
    定制工作服
    订做西服
    衬衫定制
    定制T恤
    订做西装
    工作服订制
    定制冲锋衣
    保安服
    定制T恤
    工作装定做
    制服装
    定做工服
    定做保洁服装
    厨师服定制
    定做工作服
    定做厨师服
    工衣
    定做棉服
    定做工装
    回复 支持 反对

    使用道具 举报

    您需要登录后才可以回帖 登录 | 立即注册

    本版积分规则

    本站资源均来自互联网,如果侵犯了您的权益请与我们联系,我们将在24小时内删除。

    QQ|申请友链|小黑屋|手机版|Archiver|站长工具|飞影3D论坛  

    GMT+8, 2017-12-11 19:33 , Processed in 0.142010 second(s), 29 queries .

    Powered by Discuz! X3.2

    © 2001-2013 Comsenz Inc.

    ICP备案:黔ICP备14003922号-4
    快速回复 返回顶部 返回列表