飞影3D论坛

 找回密码
 立即注册

QQ登录

只需一步,快速开始

扫一扫,访问微社区

3D超凡蜘蛛侠2(内置3D字幕版)(国英双语)
查看: 3066|回复: 650

[左右][3D收藏版【蜘蛛侠:英雄归来】3D出屏特效中字-内封正版上译国语][1080P][MKV][15.91G][国英双语][BluRay.Half-SBS.x264.AC3.DTS-飞影小曹]

  [复制链接]
  • TA的每日心情
    开心
    18 小时前
  • 签到天数: 1113 天

    [LV.10]以坛为家III

    发表于 2017-10-10 00:30:30 | 显示全部楼层 |阅读模式
    本帖最后由 13879384998 于 2017-10-10 09:43 编辑

    p2498695430蜘蛛侠英雄归来.webp.jpg
    高参数压制 全屏优良画质!

    默认正版DD5.1-640Kbps上译公映国语+DTS-英语原音

    全方位翻译3D出屏完美特效特效中字
    全网唯一最优质版本.典藏版

    做种不易,费时费力,请理性回帖勿灌水!

    aaa.jpg
    ◎译  名 蜘蛛侠:英雄归来/蜘蛛侠:强势回归(港)/蜘蛛人:返校日(台)/新蜘蛛侠/蜘蛛侠:归来/蜘蛛侠:回家/蜘蛛侠:返校季/蜘蛛侠:返校节/蜘蛛侠:归乡/蜘蛛侠:新复仇者
    ◎片  名 Spider-Man: Homecoming
    ◎年  代 2017
    ◎产  地 美国
    ◎类  别 动作/科幻/冒险
    ◎语  言 国英双语
    ◎字       幕    3D出屏字幕
    ◎视       频    1920X1080
    ◎大       小    16.9GB
    ◎上映日期 2017-07-05(台湾)/2017-07-07(美国)/2017-09-08(中国大陆)
    ◎IMDb评分  7.9/10 from 159,140 users
    ◎IMDb链接  http://www.imdb.com/title/tt2250912/
    ◎豆瓣评分 7.5/10 from 109,075 users
    ◎豆瓣链接 https://movie.douban.com/subject/24753477/
    ◎片  长 133分钟
    ◎导  演 乔·沃茨 Jon Watts
    ◎主  演 汤姆·霍兰德 Tom Holland
          小罗伯特·唐尼 Robert Downey Jr.
          玛丽莎·托梅 Marisa Tomei
          迈克尔·基顿 Michael Keaton
          雅各布·巴特朗 Jacob Batalon
          托尼·雷沃罗利 Tony Revolori
          赞达亚·科尔曼 Zendaya Coleman
          乔恩·费儒 Jon Favreau
          亚伯拉罕·阿塔哈 Abraham Attah
          劳拉·哈里尔 Laura Harrier
          迈克尔·巴尔别里 Michael Barbieri
          罗根·马歇尔-格林 Logan Marshall-Green
          马丁·斯塔尔 Martin Starr
          唐纳德·格洛弗 Donald Glover
          汉尼拔·布勒斯 Hannibal Buress
          迈克尔 曼多 michael mando
          博基姆·伍德拜因 Bokeem Woodbine
          肯尼斯·崔 Kenneth Choi
          詹妮弗·康纳利 Jennifer Connelly
          格温妮斯·帕特洛 Gwyneth Paltrow
          克里斯·埃文斯 Chris Evans
    p2462581882蜘蛛侠英雄归来.webp.jpg
    ◎简  介

      影片讲述了蜘蛛侠在钢铁侠“导师”的帮助下对抗终极反派秃鹰的故事。经历了美队3中的复联内战后,彼得·帕克(汤姆·霍兰德 Tom Holland 饰)回到普通高中生活,并受到钢铁侠托尼·斯塔克(小罗伯特·唐尼 Robert Downey Jr. 饰)的指导与暗中关注。一心想要证明自己能力的小蜘蛛,在一场银行劫案后遭遇了拥有外星终极武器的反派秃鹰(迈克尔·基顿 Michael Keaton 饰),却因一时心急而使万千生命陷入危机。此时,钢铁侠却意外收回了赠予蜘蛛侠的无敌战衣,这对于遭遇重创的蜘蛛侠无异于雪上加霜。他能否证明自己的能力,成功保卫家园成为悬念,而他“获得复联入场券”的梦想,也看似遥遥无期……
    蜘蛛侠:英雄归来.3D出屏特效中字-内封正版上译国语2017.1080p.3D.BluRay.Half-SBS.x2.jpg 蜘蛛侠:英雄归来.3D出屏特效中字-内封正版上译国语2017.1080p.3D.BluRay.Half-SBS.x2.jpg 蜘蛛侠:英雄归来.3D出屏特效中字-内封正版上译国语2017.1080p.3D.BluRay.Half-SBS.x2.jpg 蜘蛛侠:英雄归来.3D出屏特效中字-内封正版上译国语2017.1080p.3D.BluRay.Half-SBS.x2.jpg 蜘蛛侠:英雄归来.3D出屏特效中字-内封正版上译国语2017.1080p.3D.BluRay.Half-SBS.x2.jpg 蜘蛛侠:英雄归来.3D出屏特效中字-内封正版上译国语2017.1080p.3D.BluRay.Half-SBS.x2.jpg 蜘蛛侠:英雄归来.3D出屏特效中字-内封正版上译国语2017.1080p.3D.BluRay.Half-SBS.x2.jpg 蜘蛛侠:英雄归来.3D出屏特效中字-内封正版上译国语2017.1080p.3D.BluRay.Half-SBS.x2.jpg 蜘蛛侠:英雄归来.3D出屏特效中字-内封正版上译国语2017.1080p.3D.BluRay.Half-SBS.x2.jpg 蜘蛛侠:英雄归来.3D出屏特效中字-内封正版上译国语2017.1080p.3D.BluRay.Half-SBS.x2.jpg 蜘蛛侠:英雄归来.3D出屏特效中字-内封正版上译国语2017.1080p.3D.BluRay.Half-SBS.x2.jpg 蜘蛛侠:英雄归来.3D出屏特效中字-内封正版上译国语2017.1080p.3D.BluRay.Half-SBS.x2.jpg 蜘蛛侠:英雄归来.3D出屏特效中字-内封正版上译国语2017.1080p.3D.BluRay.Half-SBS.x2.jpg 蜘蛛侠:英雄归来.3D出屏特效中字-内封正版上译国语2017.1080p.3D.BluRay.Half-SBS.x2.jpg 蜘蛛侠:英雄归来.3D出屏特效中字-内封正版上译国语2017.1080p.3D.BluRay.Half-SBS.x2.jpg 蜘蛛侠:英雄归来.3D出屏特效中字-内封正版上译国语2017.1080p.3D.BluRay.Half-SBS.x2.jpg 蜘蛛侠:英雄归来.3D出屏特效中字-内封正版上译国语2017.1080p.3D.BluRay.Half-SBS.x2.jpg 蜘蛛侠:英雄归来.3D出屏特效中字-内封正版上译国语2017.1080p.3D.BluRay.Half-SBS.x2.jpg 蜘蛛侠:英雄归来.3D出屏特效中字-内封正版上译国语2017.1080p.3D.BluRay.Half-SBS.x2.jpg 蜘蛛侠:英雄归来.3D出屏特效中字-内封正版上译国语2017.1080p.3D.BluRay.Half-SBS.x2.jpg
    General
    Unique ID                                : 232939678110592391854052839533277647297 (0xAF3E8CD56120E82DB0A5CC11791491C1)
    Complete name                            :\蜘蛛侠:英雄归来.3D出屏特效中字-内封正版上译国语2017.1080p.3D.BluRay.Half-SBS.x264.AC3.DTS-飞影小曹 (1).mkv
    Format                                   : Matroska
    Format version                           : Version 4 / Version 2
    File size                                : 15.9 GiB
    Duration                                 : 2 h 13 min
    Overall bit rate                         : 17.1 Mb/s
    Encoded date                             : UTC 2017-10-09 05:38:14
    Writing library                          : libebml v1.3.3 + libmatroska v1.4.4 / Lavf52.84.0


    Video
    ID                                       : 1
    Format                                   : AVC
    Format/Info                              : Advanced Video Codec
    Format profile                           : High@L4.1
    Format settings, CABAC                   : Yes
    Format settings, ReFrames                : 5 frames
    Format settings, GOP                     : M=4, N=13
    Codec ID                                 : V_MPEG4/ISO/AVC
    Duration                                 : 2 h 13 min
    Bit rate                                 : 14.5 Mb/s
    Width                                    : 1 920 pixels
    Height                                   : 800 pixels
    Display aspect ratio                     : 2.40:1
    Frame rate mode                          : Constant
    Frame rate                               : 24.000 FPS
    Color space                              : YUV
    Chroma subsampling                       : 4:2:0
    Bit depth                                : 8 bits
    Scan type                                : Progressive
    Bits/(Pixel*Frame)                       : 0.393
    Stream size                              : 13.3 GiB (84%)
    Title                                    : 蜘蛛侠:英雄归来.3D出屏特效中字-内封正版上译国语2017.1080p.3D.BluRay.Half-SBS.x264.AC3.DTS-飞影小曹
    Writing library                          : x264 core 110
    Encoding settings                        : cabac=1 / ref=5 / deblock=1:0:0 / analyse=0x3:0x133 / me=hex / subme=8 / psy=1 / psy_rd=1.00:0.00 / mixed_ref=1 / me_range=16 / chroma_me=0 / trellis=1 / 8x8dct=1 / cqm=0 / deadzone=21,11 / fast_pskip=1 / chroma_qp_offset=-2 / threads=2 / sliced_threads=0 / nr=0 / decimate=1 / interlaced=0 / constrained_intra=0 / bframes=3 / b_pyramid=0 / b_adapt=0 / b_bias=0 / direct=3 / weightb=1 / open_gop=0 / weightp=0 / keyint=13 / keyint_min=7 / scenecut=0 / intra_refresh=0 / rc_lookahead=13 / rc=abr / mbtree=1 / bitrate=14500 / ratetol=1.0 / qcomp=0.00 / qpmin=10 / qpmax=51 / qpstep=4 / ip_ratio=1.41 / aq=1:1.00
    Default                                  : Yes
    Forced                                   : No


    Audio #1
    ID                                       : 2
    Format                                   : AC-3
    Format/Info                              : Audio Coding 3
    Format settings, Endianness              : Big
    Codec ID                                 : A_AC3
    Duration                                 : 2 h 13 min
    Bit rate mode                            : Constant
    Bit rate                                 : 640 kb/s
    Channel(s)                               : 6 channels
    Channel positions                        : Front: L C R, Side: L R, LFE
    Sampling rate                            : 48.0 kHz
    Frame rate                               : 31.250 FPS (1536 spf)
    Bit depth                                : 16 bits
    Compression mode                         : Lossy
    Stream size                              : 611 MiB (4%)
    Title                                    : 正版上译国语
    Service kind                             : Complete Main
    Default                                  : No
    Forced                                   : No


    Audio #2
    ID                                       : 3
    Format                                   : AC-3
    Format/Info                              : Audio Coding 3
    Format settings, Endianness              : Big
    Codec ID                                 : A_AC3
    Duration                                 : 2 h 13 min
    Bit rate mode                            : Constant
    Bit rate                                 : 640 kb/s
    Channel(s)                               : 6 channels
    Channel positions                        : Front: L C R, Side: L R, LFE
    Sampling rate                            : 48.0 kHz
    Frame rate                               : 31.250 FPS (1536 spf)
    Bit depth                                : 16 bits
    Compression mode                         : Lossy
    Stream size                              : 611 MiB (4%)
    Title                                    : 国语音轨
    Service kind                             : Complete Main
    Default                                  : No
    Forced                                   : No


    Audio #3
    ID                                       : 4
    Format                                   : DTS
    Format/Info                              : Digital Theater Systems
    Mode                                     : 16
    Format settings, Endianness              : Big
    Codec ID                                 : A_DTS
    Duration                                 : 2 h 13 min
    Bit rate mode                            : Constant
    Bit rate                                 : 1 509 kb/s
    Channel(s)                               : 6 channels
    Channel positions                        : Front: L C R, Side: L R, LFE
    Sampling rate                            : 48.0 kHz
    Frame rate                               : 93.750 FPS (512 spf)
    Bit depth                                : 24 bits
    Compression mode                         : Lossy
    Stream size                              : 1.41 GiB (9%)
    Title                                    : DTS英语音轨
    Language                                 : English
    Default                                  : Yes
    Forced                                   : No
    游客,如果您要查看本帖隐藏内容请回复


  • TA的每日心情
    奋斗
    10 小时前
  • 签到天数: 620 天

    [LV.9]以坛为家II

    发表于 2017-10-10 00:36:22 | 显示全部楼层
    这个不错,沙发沙发
    回复 支持 反对

    使用道具 举报

  • TA的每日心情

    9 小时前
  • 签到天数: 556 天

    [LV.9]以坛为家II

    发表于 2017-10-10 00:43:06 | 显示全部楼层
    55555555555555555555555555555555

    评分

    参与人数 1飞币 -50 收起 理由
    13879384998 -50 灌水!

    查看全部评分

    回复 支持 反对

    使用道具 举报

    该用户从未签到

    发表于 2017-10-10 01:18:52 | 显示全部楼层
    不限流量不限网速,山区、农村、城镇高速免费上网不花钱!最新9500WG接收信号高达19公里,无论您身在地球任何一个角落,都能搜到信号实现免费上网,最新软件全自动智能管理,信号强,网速快,优先自动连接上网,免去您任何手动繁琐作,保证让您高速上网免费不花钱就是这么简单!
    朋友们,您还在为家里装修要拉网线烦恼吗?还在忧愁每年交昂贵网费吗?还在苦恼出差无法上网吗?还在傻傻节省4G流量每月还要高达几十元流量费吗?还在敢怒不敢言的公司、学校、宿舍限制上网吗?还在苦逼每天站在阳台高举手机为了搜一个wifi吗?世界上最遥远的距离是明明有wifi,却用不了是多么痛苦的事!玩一会王者荣耀没了几个G的流量,看了一会视频,没了几个G的流量,壕!?还是无奈!?明明很节省,没用少则几十元多则上百元的流量费,如此高昂的费用是不是让您皱眉呢?没关系,用最新9500WG永久免费上网吧!只要238元让您永久免费上网不花钱,无需电脑,无需布线,只需插电,电脑、手机、平板免费上网就是这么任性,wifi信号覆盖高达19公里,无需站阳台,无需放窗外,想在哪里就在哪里!信号强,网速快,免费上网,能免则免,免费到底!
    免费热线:188-2652-1502  客服QQ:1094201567 官网 ccyxf.com












    9500WG

    评分

    参与人数 1飞币 -50 收起 理由
    13879384998 -50 灌水!

    查看全部评分

    回复 支持 反对

    使用道具 举报

  • TA的每日心情
    擦汗
    17 小时前
  • 签到天数: 310 天

    [LV.8]以坛为家I

    发表于 2017-10-10 02:34:30 | 显示全部楼层
    真的不错,这个收了,前几部都有了。
    回复 支持 反对

    使用道具 举报

    该用户从未签到

    发表于 2017-10-10 02:43:27 | 显示全部楼层
    回复 支持 反对

    使用道具 举报

  • TA的每日心情
    慵懒
    15 小时前
  • 签到天数: 1145 天

    [LV.10]以坛为家III

    发表于 2017-10-10 03:11:19 | 显示全部楼层
    不错终于有好版本了值得一看很好
    回复 支持 反对

    使用道具 举报

  • TA的每日心情
    开心
    半小时前
  • 签到天数: 65 天

    [LV.6]常住居民II

    发表于 2017-10-10 05:26:07 | 显示全部楼层
    非常感谢您谢谢分享
    回复 支持 反对

    使用道具 举报

    您需要登录后才可以回帖 登录 | 立即注册

    本版积分规则

    本站资源均来自互联网,如果侵犯了您的权益请与我们联系,我们将在24小时内删除。

    QQ|申请友链|小黑屋|手机版|Archiver|站长工具|飞影3D论坛  

    GMT+8, 2017-12-11 19:40 , Processed in 0.154554 second(s), 32 queries .

    Powered by Discuz! X3.2

    © 2001-2013 Comsenz Inc.

    ICP备案:黔ICP备14003922号-4
    快速回复 返回顶部 返回列表