飞影3D论坛

 找回密码
 立即注册

QQ登录

只需一步,快速开始

扫一扫,访问微社区

3D超凡蜘蛛侠2(内置3D字幕版)(国英双语)
查看: 3993|回复: 1006

[左右][3D收藏版【变形金刚5:最后的骑士】3D出屏特效字幕-5.1重混国语][1080P][MKV][18.35G][国英双语][3D重新包装版BluRay.x264.AC3.DTS-飞影小曹]

  [复制链接]
  • TA的每日心情
    开心
    18 小时前
  • 签到天数: 1113 天

    [LV.10]以坛为家III

    发表于 2017-10-1 13:38:33 | 显示全部楼层 |阅读模式
    本帖最后由 13879384998 于 2017-10-1 13:49 编辑

    apic14731_sc115.com.jpg
    正逢国庆中秋佳节之际,在此祝社区全体兄弟姐妹节日快乐.祝工作顺心顺意,阖家团圆
    p2466334358bxjg.webp.jpg
    重新包装版本真正的IMAX.立体效果尤为出众修正3D版本少时一秒误差,音画完美同步!
    高参数压制 全屏优良画质!

    默认重混DD5.1-640Kbps公映国语+DTS-英语原音
    国语音轨出之国语视界 bobo调制,感谢.此版为最终修正版音轨

    全方位翻译3D出屏完美特效特效中字

    全网唯一最优质版本.典藏版

    做种不易,费时费力,请理性回帖勿灌水!
    aaa.jpg
    ◎译  名 变形金刚5:最后的骑士/变形金刚:终极战士(港)/变形金刚5:最终骑士(台)/变形金刚5/变5
    ◎片  名 Transformers: The Last Knight
    ◎年  代 2017
    ◎产  地 美国
    ◎类  别 动作/科幻
    ◎语  言 英语
    ◎上映日期 2017-06-21(美国)/2017-06-23(中国大陆)
    ◎IMDb评分  5.3/10 from 44,719 users
    ◎豆瓣评分 4.9/10 from 104,026 users
    ◎片  长 149分钟/150分钟(中国大陆)
    ◎导  演 迈克尔·贝 Michael Bay
    ◎主  演 马克·沃尔伯格 Mark Wahlberg
          伊莎贝拉·莫奈 Isabela Moner
          劳拉·哈德克 Laura Haddock
          安东尼·霍普金斯 Anthony Hopkins
          乔什·杜哈明 Josh Duhamel
          彼特·库伦 Peter Cullen
          约翰·古德曼 John Goodman
          斯坦利·图齐 Stanley Tucci
          桑地亚哥·卡布瑞拉 Santiago Cabrera
          吉尔·伯明翰 Gil Birmingham
          渡边谦 Ken Watanabe
          约翰·迪·玛吉欧 John Di Maggio
          弗兰克·维尔克 Frank Welker
          米彻·佩勒吉 Mitch Pileggi
    p2462792160bxjg.webp.jpg
    ◎简  介

      《变形金刚5:最后的骑士》打破了《变形金刚》系列的核心故事,重新定义了人们心目中的英雄形象。人类和变形金刚开战,擎天柱失踪,拯救未来的关键就埋藏在历史的秘密之中,那是地球上变形金刚的历史。拯救世界的责任落在一支非同寻常的队伍身上:凯德·伊格尔(马克·沃尔伯格饰)、大黄蜂、一位英国爵士(安东尼·霍普金斯饰)还有一位牛津大学教授(劳拉·哈德克饰)。
      每个人一生中都会遇到这样一个时刻,它召唤着我们去改变世界。在《变形金刚5:最后的骑士》中,一直被追捕的人将成为英雄,英雄会变成反派。我们和他们的世界,只能存活一个。
    变形金刚5.重包装3D版本2017.1080p.3D.BluRay.Half-SBS.x264.2017.REPACK.3D.1080p.Bl.jpg 变形金刚5.重包装3D版本2017.1080p.3D.BluRay.Half-SBS.x264.2017.REPACK.3D.1080p.Bl.jpg 变形金刚5.重包装3D版本2017.1080p.3D.BluRay.Half-SBS.x264.2017.REPACK.3D.1080p.Bl.jpg 变形金刚5.重包装3D版本2017.1080p.3D.BluRay.Half-SBS.x264.2017.REPACK.3D.1080p.Bl.jpg 变形金刚5.重包装3D版本2017.1080p.3D.BluRay.Half-SBS.x264.2017.REPACK.3D.1080p.Bl.jpg 变形金刚5.重包装3D版本2017.1080p.3D.BluRay.Half-SBS.x264.2017.REPACK.3D.1080p.Bl.jpg 变形金刚5.重包装3D版本2017.1080p.3D.BluRay.Half-SBS.x264.2017.REPACK.3D.1080p.Bl.jpg 变形金刚5.重包装3D版本2017.1080p.3D.BluRay.Half-SBS.x264.2017.REPACK.3D.1080p.Bl.jpg 变形金刚5.重包装3D版本2017.1080p.3D.BluRay.Half-SBS.x264.2017.REPACK.3D.1080p.Bl.jpg 变形金刚5.重包装3D版本2017.1080p.3D.BluRay.Half-SBS.x264.2017.REPACK.3D.1080p.Bl.jpg 变形金刚5.重包装3D版本2017.1080p.3D.BluRay.Half-SBS.x264.2017.REPACK.3D.1080p.Bl.jpg 变形金刚5.重包装3D版本2017.1080p.3D.BluRay.Half-SBS.x264.2017.REPACK.3D.1080p.Bl.jpg 变形金刚5.重包装3D版本2017.1080p.3D.BluRay.Half-SBS.x264.2017.REPACK.3D.1080p.Bl.jpg 变形金刚5.重包装3D版本2017.1080p.3D.BluRay.Half-SBS.x264.2017.REPACK.3D.1080p.Bl.jpg 变形金刚5.重包装3D版本2017.1080p.3D.BluRay.Half-SBS.x264.2017.REPACK.3D.1080p.Bl.jpg 变形金刚5.重包装3D版本2017.1080p.3D.BluRay.Half-SBS.x264.2017.REPACK.3D.1080p.Bl.jpg 变形金刚5.重包装3D版本2017.1080p.3D.BluRay.Half-SBS.x264.2017.REPACK.3D.1080p.Bl.jpg 变形金刚5.重包装3D版本2017.1080p.3D.BluRay.Half-SBS.x264.2017.REPACK.3D.1080p.Bl.jpg
    General
    Unique ID                                : 187236205400631984219637344795530807847 (0x8CDC61A7B84745F19DEBA956799ACA27)
    Complete name                            : BXJG5.-3D出屏特效字幕+5.1国语.重包装3D版本2017.1080p.3D.BluRay.1080p.x264.AC3.DTS-飞影小曹.mkv
    Format                                   : Matroska
    Format version                           : Version 4 / Version 2
    File size                                : 18.3 GiB
    Duration                                 : 2 h 34 min
    Overall bit rate                         : 17.0 Mb/s
    Encoded date                             : UTC 2017-10-01 03:09:38
    Writing application                      : mkvmerge v8.8.0 ('Wind at my back') 32bit
    Writing library                          : libebml v1.3.3 + libmatroska v1.4.4 / Lavf52.84.0

    Video
    ID                                       : 1
    Format                                   : AVC
    Format/Info                              : Advanced Video Codec
    Format profile                           : High@L5
    Format settings, CABAC                   : Yes
    Format settings, ReFrames                : 5 frames
    Format settings, GOP                     : M=4, N=13
    Codec ID                                 : V_MPEG4/ISO/AVC
    Duration                                 : 2 h 34 min
    Bit rate                                 : 14.5 Mb/s
    Width                                    : 1 920 pixels
    Height                                   : 1 008 pixels
    Display aspect ratio                     : 1.905
    Frame rate mode                          : Constant
    Frame rate                               : 24.000 FPS
    Color space                              : YUV
    Chroma subsampling                       : 4:2:0
    Bit depth                                : 8 bits
    Scan type                                : Progressive
    Bits/(Pixel*Frame)                       : 0.312
    Stream size                              : 15.3 GiB (84%)
    Writing library                          : x264 core 110
    Encoding settings                        : cabac=1 / ref=5 / deblock=1:0:0 / analyse=0x3:0x133 / me=hex / subme=8 / psy=1 / psy_rd=1.00:0.00 / mixed_ref=1 / me_range=16 / chroma_me=0 / trellis=1 / 8x8dct=1 / cqm=0 / deadzone=21,11 / fast_pskip=1 / chroma_qp_offset=-2 / threads=2 / sliced_threads=0 / nr=0 / decimate=1 / interlaced=0 / constrained_intra=0 / bframes=3 / b_pyramid=0 / b_adapt=0 / b_bias=0 / direct=3 / weightb=1 / open_gop=0 / weightp=0 / keyint=13 / keyint_min=7 / scenecut=0 / intra_refresh=0 / rc_lookahead=13 / rc=abr / mbtree=1 / bitrate=14500 / ratetol=1.0 / qcomp=0.00 / qpmin=10 / qpmax=51 / qpstep=4 / ip_ratio=1.41 / aq=1:1.00
    Default                                  : Yes
    Forced                                   : No

    Audio #1
    ID                                       : 2
    Format                                   : AC-3
    Format/Info                              : Audio Coding 3
    Format settings, Endianness              : Big
    Codec ID                                 : A_AC3
    Duration                                 : 2 h 34 min
    Bit rate mode                            : Constant
    Bit rate                                 : 640 kb/s
    Channel(s)                               : 6 channels
    Channel positions                        : Front: L C R, Side: L R, LFE
    Sampling rate                            : 48.0 kHz
    Frame rate                               : 31.250 FPS (1536 spf)
    Bit depth                                : 16 bits
    Compression mode                         : Lossy
    Stream size                              : 708 MiB (4%)
    Title                                    : 重混公映国语
    Service kind                             : Complete Main
    Default                                  : No
    Forced                                   : No

    Audio #2
    ID                                       : 3
    Format                                   : AC-3
    Format/Info                              : Audio Coding 3
    Format settings, Endianness              : Big
    Codec ID                                 : A_AC3
    Duration                                 : 2 h 34 min
    Bit rate mode                            : Constant
    Bit rate                                 : 640 kb/s
    Channel(s)                               : 6 channels
    Channel positions                        : Front: L C R, Side: L R, LFE
    Sampling rate                            : 48.0 kHz
    Frame rate                               : 31.250 FPS (1536 spf)
    Bit depth                                : 16 bits
    Compression mode                         : Lossy
    Stream size                              : 708 MiB (4%)
    Title                                    : 重混公映国语
    Service kind                             : Complete Main
    Default                                  : No
    Forced                                   : No

    Audio #3
    ID                                       : 4
    Format                                   : DTS
    Format/Info                              : Digital Theater Systems
    Mode                                     : 16
    Format settings, Endianness              : Big
    Codec ID                                 : A_DTS
    Duration                                 : 2 h 34 min
    Bit rate mode                            : Constant
    Bit rate                                 : 1 509 kb/s
    Channel(s)                               : 6 channels
    Channel positions                        : Front: L C R, Side: L R, LFE
    Sampling rate                            : 48.0 kHz
    Frame rate                               : 93.750 FPS (512 spf)
    Bit depth                                : 24 bits
    Compression mode                         : Lossy
    Stream size                              : 1.63 GiB (9%)
    Title                                    : DTS英语音轨
    Language                                 : English
    Default                                  : Yes
    Forced                                   : No


    游客,如果您要查看本帖隐藏内容请回复

    评分

    参与人数 1魔力 +20 飞币 +40 气功 +10 黑影 +10 收起 理由
    天涯的风 + 20 + 40 + 10 + 10 赞一个! 双节快乐 !

    查看全部评分

    该用户从未签到

    发表于 2017-10-1 13:43:16 | 显示全部楼层
    提示: 作者被禁止或删除 内容自动屏蔽
    回复 支持 0 反对 1

    使用道具 举报

  • TA的每日心情
    擦汗
    8 小时前
  • 签到天数: 450 天

    [LV.9]以坛为家II

    发表于 2017-10-1 13:42:57 | 显示全部楼层
    非常感谢楼主,节日快乐
    回复 支持 反对

    使用道具 举报

  • TA的每日心情

    半小时前
  • 签到天数: 247 天

    [LV.8]以坛为家I

    发表于 2017-10-1 13:45:08 | 显示全部楼层
    非常感谢楼主,节日快乐
    回复 支持 反对

    使用道具 举报

  • TA的每日心情
    开心
    8 小时前
  • 签到天数: 284 天

    [LV.8]以坛为家I

    发表于 2017-10-1 13:51:02 | 显示全部楼层
    楼主辛苦谢谢分享
    回复 支持 反对

    使用道具 举报

  • TA的每日心情
    开心
    12 小时前
  • 签到天数: 607 天

    [LV.9]以坛为家II

    发表于 2017-10-1 13:51:54 | 显示全部楼层
    不错,就是感觉有点大,感谢分享
    回复 支持 反对

    使用道具 举报

  • TA的每日心情
    开心
    12 小时前
  • 签到天数: 607 天

    [LV.9]以坛为家II

    发表于 2017-10-1 13:52:19 | 显示全部楼层
    不错,就是感觉有点大,感谢分享
    回复 支持 反对

    使用道具 举报

  • TA的每日心情
    奋斗
    昨天 11:34
  • 签到天数: 74 天

    [LV.6]常住居民II

    发表于 2017-10-1 13:52:52 | 显示全部楼层
    我要下载测试用
    回复 支持 反对

    使用道具 举报

  • TA的每日心情

    半小时前
  • 签到天数: 247 天

    [LV.8]以坛为家I

    发表于 2017-10-1 13:54:13 | 显示全部楼层
    非常感谢楼主,节日快乐.
    回复 支持 反对

    使用道具 举报

  • TA的每日心情
    无聊
    2017-10-3 09:40
  • 签到天数: 2 天

    [LV.1]初来乍到

    发表于 2017-10-1 13:54:28 | 显示全部楼层
    谢谢楼主分享。。。。。。
    回复 支持 反对

    使用道具 举报

    您需要登录后才可以回帖 登录 | 立即注册

    本版积分规则

    本站资源均来自互联网,如果侵犯了您的权益请与我们联系,我们将在24小时内删除。

    QQ|申请友链|小黑屋|手机版|Archiver|站长工具|飞影3D论坛  

    GMT+8, 2017-12-11 19:40 , Processed in 0.124683 second(s), 29 queries .

    Powered by Discuz! X3.2

    © 2001-2013 Comsenz Inc.

    ICP备案:黔ICP备14003922号-4
    快速回复 返回顶部 返回列表