飞影3D论坛

 找回密码
 立即注册

QQ登录

只需一步,快速开始

扫一扫,访问微社区

3D超凡蜘蛛侠2(内置3D字幕版)(国英双语)
查看: 2731|回复: 690

[左右][3D收藏版【加勒比海盗5:死无对证】内封八一正版国语-3D出屏完美特效国配中字][1080P][MKV][15.36G][BluRay.Half-SBS.x264.AC3.DTS-飞影小曹]

  [复制链接]
  • TA的每日心情
    开心
    21 小时前
  • 签到天数: 1066 天

    [LV.10]以坛为家III

    发表于 2017-9-25 00:20:46 | 显示全部楼层 |阅读模式
    本帖最后由 13879384998 于 2017-9-25 14:06 编辑

    p2499661235加勒比海盗5.webp.jpg
    此片超一流立体效果 高参数压制 全屏优良画质!

    默认DD5.1-640Kbps八一正版国语+DTS-英语原音

    全方位翻译3D出屏完美特效国配中字

    全网唯一最优质版本.典藏版

    做种不易,费时费力,请理性回帖勿灌水!
    aaa.jpg
    ◎译  名 加勒比海盗5:死无对证/加勒比海盗:恶灵启航(港)/加勒比海盗 神鬼奇航:死无对证(台)/加勒比海盗5:亡灵的缄默/加勒比海盗5:亡者无言/加勒比海盗5:死人不会告密
    ◎片  名 Pirates of the Caribbean: Dead Men Tell No Tales
    ◎年  代 2017
    ◎产  地 美国
    ◎类  别 动作/奇幻/冒险
    ◎语  言 英语-国语
    ◎字       幕   全屏无黑边-3D出屏字幕
    ◎上映日期 2017-05-26(中国大陆)/2017-05-26(美国)
    ◎IMDb评分  6.9/10 from 106,100 users
    ◎IMDb链接  http://www.imdb.com/title/tt1790809/
    ◎豆瓣评分 7.3/10 from 142,564 users
    ◎豆瓣链接 https://movie.douban.com/subject/6311303/
    ◎片  长 129分钟
    ◎导  演 艾斯彭·山德伯格 Espen Sandberg / 乔阿吉姆·罗恩尼 Joachim Rønning
    ◎主  演 约翰尼·德普 Johnny Depp
          哈维尔·巴登 Javier Bardem
          杰弗里·拉什 Geoffrey Rush
          布伦顿·思韦茨 Brenton Thwaites
          卡雅·斯考达里奥 Kaya Scodelario
          凯文·麦克纳利 Kevin McNally
          格什菲·法拉哈尼 Golshifteh Farahani
          奥兰多·布鲁姆 Orlando Bloom
          凯拉·奈特莉 Keira Knightley
          斯蒂芬·格拉汉姆 Stephen Graham
          大卫·文翰 David Wenham
          保罗·麦卡特尼 Paul McCartney
          马丁·科勒巴 Martin Klebba
          亚当·布朗 Adam Brown
          丹尼·基兰 Danny Kirrane
          马赫什·扎杜 Mahesh Jadu
          胡安·卡洛斯·凡希多 Juan Carlos Vellido
    p2458455603加勒比海盗5.webp.jpg
    ◎简  介

      故事发生在《加勒比海盗3:世界的尽头》沉船湾之战20年后。 男孩亨利(布兰顿·思怀兹 Brenton Thwaites 饰)随英国海军出航寻找被聚魂棺诅咒的父亲“深海阎王”威尔·特纳(奥兰多·布鲁姆 Orlando Bloom 饰),却在百慕大三角遭遇被解封的亡灵萨拉查船长(哈维尔·巴登 Javier Bardem 饰)。获取自由的萨拉查屠尽加勒比海盗,征服了整个海域,手刃了“黑胡子”爱德华·蒂奇(伊恩·麦柯肖恩 Ian McShane 饰)的里海海盗王赫克托·巴博萨船长(杰弗里·拉什 Geoffrey Rush 饰)在女巫Haifaa Meni(格什菲·法拉哈尼 Golshifteh Farahani 饰)口中得知了萨拉查的真实目的:为寻找他的宿敌杰克船长(约翰尼·德普 Johnny Depp 饰)。海盗的命运皆压在落魄的老杰克被封印的黑珍珠号,以及天文学家卡琳娜·史密斯(卡雅·斯考达里奥 Kaya Scodelario 饰)口中的远古三叉戟上。

    加勒比海盗5:死无对证.内封八一正版国语-3D出屏国配特效中字2017.1080p.3D.BluRay.Ha.jpg 加勒比海盗5:死无对证.内封八一正版国语-3D出屏国配特效中字2017.1080p.3D.BluRay.Ha.jpg 加勒比海盗5:死无对证.内封八一正版国语-3D出屏国配特效中字2017.1080p.3D.BluRay.Ha.jpg 加勒比海盗5:死无对证.内封八一正版国语-3D出屏国配特效中字2017.1080p.3D.BluRay.Ha.jpg 加勒比海盗5:死无对证.内封八一正版国语-3D出屏国配特效中字2017.1080p.3D.BluRay.Ha.jpg 加勒比海盗5:死无对证.内封八一正版国语-3D出屏国配特效中字2017.1080p.3D.BluRay.Ha.jpg 加勒比海盗5:死无对证.内封八一正版国语-3D出屏国配特效中字2017.1080p.3D.BluRay.Ha.jpg 加勒比海盗5:死无对证.内封八一正版国语-3D出屏国配特效中字2017.1080p.3D.BluRay.Ha.jpg 加勒比海盗5:死无对证.内封八一正版国语-3D出屏国配特效中字2017.1080p.3D.BluRay.Ha.jpg 加勒比海盗5:死无对证.内封八一正版国语-3D出屏国配特效中字2017.1080p.3D.BluRay.Ha.jpg 加勒比海盗5:死无对证.内封八一正版国语-3D出屏国配特效中字2017.1080p.3D.BluRay.Ha.jpg 加勒比海盗5:死无对证.内封八一正版国语-3D出屏国配特效中字2017.1080p.3D.BluRay.Ha.jpg 加勒比海盗5:死无对证.内封八一正版国语-3D出屏国配特效中字2017.1080p.3D.BluRay.Ha.jpg 加勒比海盗5:死无对证.内封八一正版国语-3D出屏国配特效中字2017.1080p.3D.BluRay.Ha.jpg 加勒比海盗5:死无对证.内封八一正版国语-3D出屏国配特效中字2017.1080p.3D.BluRay.Ha.jpg
    General
    Unique ID                                : 176145701856824027750778399693341112240 (0x84846D9D14BEAEFF99EBD339B8B6B7B0)
    Complete name                            : 加勒比海盗5:死无对证.内封八一正版国语-3D出屏国配特效中字2017.1080p.3D.BluRay.Half-SBS.x264.AC3.DTS-飞影小曹.mkv
    Format                                   : Matroska
    Format version                           : Version 4 / Version 2
    File size                                : 15.4 GiB
    Duration                                 : 2 h 9 min
    Overall bit rate                         : 17.0 Mb/s
    Movie name                               : Pirates.of.the.Caribbean.Dead.Men.Tell.No.Tales.2017.1080p.3D.BluRay.Half-SBS.x264.DTS
    Encoded date                             : UTC 2017-09-24 08:27:44
    Writing application                      : mkvmerge v8.8.0 ('Wind at my back') 32bit
    Writing library                          : libebml v1.3.3 + libmatroska v1.4.4 / Lavf52.84.0
    Cover                                    : Yes
    Attachments                              : cover_land.jpg / small_cover.jpg / small_cover_land.jpg / cover.jpg

    Video
    ID                                       : 1
    Format                                   : AVC
    Format/Info                              : Advanced Video Codec
    Format profile                           : High@L4.1
    Format settings, CABAC                   : Yes
    Format settings, ReFrames                : 5 frames
    Format settings, GOP                     : M=4, N=13
    Codec ID                                 : V_MPEG4/ISO/AVC
    Duration                                 : 2 h 9 min
    Bit rate                                 : 15.0 Mb/s
    Width                                    : 1 920 pixels
    Height                                   : 800 pixels
    Display aspect ratio                     : 2.40:1
    Frame rate mode                          : Constant
    Frame rate                               : 24.000 FPS
    Color space                              : YUV
    Chroma subsampling                       : 4:2:0
    Bit depth                                : 8 bits
    Scan type                                : Progressive
    Bits/(Pixel*Frame)                       : 0.407
    Stream size                              : 13.4 GiB (87%)
    Title                                    : 加勒比海盗5:死无对证.内封八一正版国语-3D出屏国配特效中字2017.1080p.3D.BluRay.Half-SBS.x264.AC3.DTS-飞影小曹
    Writing library                          : x264 core 110
    Encoding settings                        : cabac=1 / ref=5 / deblock=1:0:0 / analyse=0x3:0x133 / me=hex / subme=8 / psy=1 / psy_rd=1.00:0.00 / mixed_ref=1 / me_range=16 / chroma_me=0 / trellis=1 / 8x8dct=1 / cqm=0 / deadzone=21,11 / fast_pskip=1 / chroma_qp_offset=-2 / threads=2 / sliced_threads=0 / nr=0 / decimate=1 / interlaced=0 / constrained_intra=0 / bframes=3 / b_pyramid=0 / b_adapt=0 / b_bias=0 / direct=3 / weightb=1 / open_gop=0 / weightp=0 / keyint=13 / keyint_min=7 / scenecut=0 / intra_refresh=0 / rc_lookahead=13 / rc=abr / mbtree=1 / bitrate=15000 / ratetol=1.0 / qcomp=0.00 / qpmin=10 / qpmax=51 / qpstep=4 / ip_ratio=1.41 / aq=1:1.00
    Default                                  : Yes
    Forced                                   : No

    Audio #1
    ID                                       : 2
    Format                                   : AC-3
    Format/Info                              : Audio Coding 3
    Format settings, Endianness              : Big
    Codec ID                                 : A_AC3
    Duration                                 : 2 h 9 min
    Bit rate mode                            : Constant
    Bit rate                                 : 640 kb/s
    Channel(s)                               : 6 channels
    Channel positions                        : Front: L C R, Side: L R, LFE
    Sampling rate                            : 48.0 kHz
    Frame rate                               : 31.250 FPS (1536 spf)
    Bit depth                                : 16 bits
    Compression mode                         : Lossy
    Stream size                              : 591 MiB (4%)
    Title                                    : 正版八一音轨
    Service kind                             : Complete Main
    Default                                  : Yes
    Forced                                   : No

    Audio #2
    ID                                       : 3
    Format                                   : DTS
    Format/Info                              : Digital Theater Systems
    Mode                                     : 16
    Format settings, Endianness              : Big
    Codec ID                                 : A_DTS
    Duration                                 : 2 h 9 min
    Bit rate mode                            : Constant
    Bit rate                                 : 1 509 kb/s
    Channel(s)                               : 6 channels
    Channel positions                        : Front: L C R, Side: L R, LFE
    Sampling rate                            : 48.0 kHz
    Frame rate                               : 93.750 FPS (512 spf)
    Bit depth                                : 24 bits
    Compression mode                         : Lossy
    Stream size                              : 1.36 GiB (9%)
    Title                                    : DTS英语音轨
    Language                                 : English
    Default                                  : No
    Forced                                   : No

    游客,如果您要查看本帖隐藏内容请回复

    该用户从未签到

    发表于 2017-9-25 00:55:10 | 显示全部楼层
    不错的贴,太喜欢了,大家都顶啊












    专业代发帖子,发帖宣传,论坛发帖,网络推广,外链代发。
    联系QQ:188662616   微信号:11688976

    1. 论坛:发帖·顶贴·盖楼·维护·回复·评论·沉帖·负面压制·新闻评论·置顶加精等等~
    2. 微博:加粉·直发·转发·评论·转评·话题·阅读量·投票·收藏·点赞·等等~
    3. 微信:加粉·转发·点赞·阅读量·分享·投票·等等~
    4. 点击:帖子点击率·视频点击率·博客点击率·网站IP·等等~
    5. 视频:评论·点赞·等等~
    6. sns :转发·评论·等等~
    7. 问答:百度知道·360问答·搜搜问答·等等~
    8. 投票:各种网络评选投票·等等~
    9. 博客:博客发帖·评论·高等级博客发帖
    10.qq群:各类群发
    11.贴吧 :加关注·包月签到·包年签到·提高贴吧排名

    承接各类网络任务!人手多,老手多,多年执行经验,全年无休假。
    联系QQ:188662616  微信号:11688976

    回复 支持 0 反对 1

    使用道具 举报

    该用户从未签到

    发表于 2017-9-25 01:08:30 | 显示全部楼层
    嘿嘿,回个贴表明我来过。












    沈阳女子医院
    沈阳凤凰妇科医院
    沈阳妇科医院
    沈阳无痛人流专科医院
    沈阳妇科医院排行榜
    沈阳正规的妇科医院
    沈阳人流
    沈阳人流医院
    沈阳好的人流医院
    沈阳医院无痛人流多少钱
    沈阳哪家医院人流最好
    沈阳最好的人流医院
    沈阳治疗乳腺病医院
    沈阳人流重点医院
    沈阳网站优化
    张家界自助游攻略
    儿童绘画加盟
    盛京棋牌
    回复 支持 0 反对 1

    使用道具 举报

  • TA的每日心情
    无聊
    3 天前
  • 签到天数: 98 天

    [LV.6]常住居民II

    发表于 2017-9-25 00:22:24 | 显示全部楼层
    感谢楼主无私奉献
    回复 支持 反对

    使用道具 举报

    该用户从未签到

    发表于 2017-9-25 00:24:27 | 显示全部楼层
    回复 支持 反对

    使用道具 举报

  • TA的每日心情
    无聊
    3 天前
  • 签到天数: 98 天

    [LV.6]常住居民II

    发表于 2017-9-25 00:24:33 | 显示全部楼层
    感谢楼主无私奉献
    回复 支持 反对

    使用道具 举报

  • TA的每日心情
    开心
    2017-10-11 14:48
  • 签到天数: 5 天

    [LV.2]偶尔看看I

    发表于 2017-9-25 00:30:43 | 显示全部楼层
    牛,感谢楼主无私奉献
    回复 支持 反对

    使用道具 举报

  • TA的每日心情
    开心
    20 小时前
  • 签到天数: 258 天

    [LV.8]以坛为家I

    发表于 2017-9-25 00:36:34 | 显示全部楼层
    kkkkkkkkkk
    回复 支持 反对

    使用道具 举报

  • TA的每日心情
    奋斗
    23 分钟前
  • 签到天数: 647 天

    [LV.9]以坛为家II

    发表于 2017-9-25 00:37:03 | 显示全部楼层
    感谢楼主无私奉献
    回复 支持 反对

    使用道具 举报

    您需要登录后才可以回帖 登录 | 立即注册

    本版积分规则

    本站资源均来自互联网,如果侵犯了您的权益请与我们联系,我们将在24小时内删除。

    QQ|申请友链|小黑屋|手机版|Archiver|站长工具|飞影3D论坛  

    GMT+8, 2017-10-23 21:25 , Processed in 0.143040 second(s), 29 queries .

    Powered by Discuz! X3.2

    © 2001-2013 Comsenz Inc.

    ICP备案:黔ICP备14003922号-4
    快速回复 返回顶部 返回列表