飞影3D论坛

 找回密码
 立即注册

QQ登录

只需一步,快速开始

扫一扫,访问微社区

3D超凡蜘蛛侠2(内置3D字幕版)(国英双语)
查看: 3359|回复: 774

[左右][3D收藏版【神奇女侠】3D出屏国配特效中字-重混次世代国语][1080P][MKV][18.90G][国英双语][BluRay.-SBS.x264.AC3.DTS-HD.MA.7.1-飞影小曹]

  [复制链接]
  • TA的每日心情
    开心
    21 小时前
  • 签到天数: 1066 天

    [LV.10]以坛为家III

    发表于 2017-9-16 19:45:53 | 显示全部楼层 |阅读模式
    p2461156859神奇女侠.webp.jpg
    此片超一流立体效果 高参数压制 全屏优良画质!

    默认重混次世代公映国语.truehd7.1-2218Kbps+重混公映国语DD5.1-640-Kbps+DTS-英语原音

    全方位翻译完美出屏中字——国配字幕由 无聊老生 诚意制作..感谢!

    全网唯一最优质版本.典藏版

    做种不易,费时费力,请理性回帖勿灌水!
    aaa.jpg
    ◎译  名 神奇女侠/神力女超人(台)
    ◎片  名 Wonder Woman
    ◎年  代 2017
    ◎产  地 美国
    ◎类  别 动作/奇幻/冒险
    ◎语  言 英语-国语
    ◎字       幕   全屏无黑边-3D出屏字幕
    ◎上映日期 2017-05-30(香港/台湾)/2017-06-02(中国大陆)/2017-06-02(美国)
    ◎IMDb评分  7.8/10 from 236,675 users
    ◎豆瓣评分 7.2/10 from 169,227 users
    ◎片  长 141分钟
    ◎导  演 派蒂·杰金斯 Patty Jenkins
    ◎主  演 盖尔·加朵 Gal Gadot
          克里斯·派恩 Chris Pine
          康妮·尼尔森 Connie Nielsen
          罗宾·怀特 Robin Wright
          丹尼·赫斯顿 Danny Huston
          大卫·休里斯 David Thewlis
          萨伊德·塔格马奥 Saïd Taghmaoui
          艾文·布莱纳 Ewen Bremner
          尤金·布雷弗·洛克 Eugene Brave Rock
          露茜·戴维斯 Lucy Davis
          埃琳纳·安娜亚 Elena Anaya
          莉莉·阿斯佩尔 Lilly Aspell
          艾米丽·凯里 Emily Carey
          丽莎·洛文·孔斯利 Lisa Loven Kongsli
          安·奥戈博莫 Ann Ogbomo
          杜晨·科洛斯 Doutzen Kroes
    p2460139371神奇女侠.webp.jpg

    ◎简  介

      戴安娜(盖尔·加朵 Gal Gadot 饰)是女王希波吕忒(康妮·尼尔森 Connie Nielsen 饰)的女儿,自幼生活在天堂岛上。巨大的屏障将这座岛屿同外界的纷纷扰扰隔开犹如一个世外桃源,而岛上生活着的亦都是女性。在女武官安提奥普(罗宾·莱特 Robin Wright 饰)的教导之下,戴安娜习得了高强的武艺,而她的体内,似乎隐藏着某种强大的未知力量。
      一场意外中,一位名为史蒂夫(克里斯·派恩 Chris Pine 饰)的男子来到了岛上,从他口中,戴安娜得知外面的世界正在经历战争的磨难,而造成这一切的罪魁祸首,是战神阿瑞斯(大卫·休里斯 David Thewlis 饰)。为了拯救人类于水火之中,戴安娜依然拿起了长剑与盾牌,发誓要彻底摧毁阿瑞斯的阴谋。
    3D神奇女侠.2017.3D出屏特效中字-次世代国语.1080p.BluRay.-SBS.x264.AC3.DTS-HD.MA.7.jpg 3D神奇女侠.2017.3D出屏特效中字-次世代国语.1080p.BluRay.-SBS.x264.AC3.DTS-HD.MA.7.jpg 3D神奇女侠.2017.3D出屏特效中字-次世代国语.1080p.BluRay.-SBS.x264.AC3.DTS-HD.MA.7.jpg 3D神奇女侠.2017.3D出屏特效中字-次世代国语.1080p.BluRay.-SBS.x264.AC3.DTS-HD.MA.7.jpg 3D神奇女侠.2017.3D出屏特效中字-次世代国语.1080p.BluRay.-SBS.x264.AC3.DTS-HD.MA.7.jpg 3D神奇女侠.2017.3D出屏特效中字-次世代国语.1080p.BluRay.-SBS.x264.AC3.DTS-HD.MA.7.jpg 3D神奇女侠.2017.3D出屏特效中字-次世代国语.1080p.BluRay.-SBS.x264.AC3.DTS-HD.MA.7.jpg 3D神奇女侠.2017.3D出屏特效中字-次世代国语.1080p.BluRay.-SBS.x264.AC3.DTS-HD.MA.7.jpg 3D神奇女侠.2017.3D出屏特效中字-次世代国语.1080p.BluRay.-SBS.x264.AC3.DTS-HD.MA.7.jpg 3D神奇女侠.2017.3D出屏特效中字-次世代国语.1080p.BluRay.-SBS.x264.AC3.DTS-HD.MA.7.jpg
    General
    Unique ID                                : 172185442594993908699927691631422858756 (0x8189B5C1C8293E978825EB77A69BE604)
    Complete name                            : 3D神奇女侠.2017.3D出屏国配特效中字-重混次世代国语.1080p.BluRay.-SBS.x264.AC3.DTS-HD.MA.7.1-飞影小曹.mkv
    Format                                   : Matroska
    Format version                           : Version 4 / Version 2
    File size                                : 18.9 GiB
    Duration                                 : 2 h 21 min
    Overall bit rate mode                    : Variable
    Overall bit rate                         : 19.2 Mb/s
    Movie name                               : Wonder.Woman.2017.3D.1080p.BluRay.Half-SBS.x264.DTS-HD.MA.7.1-飞影小曹
    Encoded date                             : UTC 2017-09-15 14:01:45
    Writing application                      : mkvmerge v8.8.0 ('Wind at my back') 32bit
    Writing library                          : libebml v1.3.3 + libmatroska v1.4.4 / Lavf52.84.0


    Video
    ID                                       : 1
    Format                                   : AVC
    Format/Info                              : Advanced Video Codec
    Format profile                           : High@L4.1
    Format settings, CABAC                   : Yes
    Format settings, ReFrames                : 5 frames
    Codec ID                                 : V_MPEG4/ISO/AVC
    Duration                                 : 2 h 21 min
    Bit rate                                 : 15.0 Mb/s
    Width                                    : 1 920 pixels
    Height                                   : 800 pixels
    Display aspect ratio                     : 2.40:1
    Frame rate mode                          : Constant
    Frame rate                               : 24.000 FPS
    Color space                              : YUV
    Chroma subsampling                       : 4:2:0
    Bit depth                                : 8 bits
    Scan type                                : Progressive
    Bits/(Pixel*Frame)                       : 0.407
    Stream size                              : 14.6 GiB (77%)
    Title                                    : 神奇女侠.2017.3D出屏国配特效中字-重混次世代国语.1080p.BluRay.-SBS.x264.AC3.DTS-HD.MA.7.1-飞影小曹
    Writing library                          : x264 core 110
    Encoding settings                        : cabac=1 / ref=5 / deblock=1:0:0 / analyse=0x3:0x133 / me=hex / subme=8 / psy=1 / psy_rd=1.00:0.00 / mixed_ref=1 / me_range=16 / chroma_me=0 / trellis=1 / 8x8dct=1 / cqm=0 / deadzone=21,11 / fast_pskip=1 / chroma_qp_offset=-2 / threads=2 / sliced_threads=0 / nr=0 / decimate=1 / interlaced=0 / constrained_intra=0 / bframes=3 / b_pyramid=0 / b_adapt=0 / b_bias=0 / direct=3 / weightb=1 / open_gop=0 / weightp=0 / keyint=13 / keyint_min=7 / scenecut=0 / intra_refresh=0 / rc_lookahead=13 / rc=abr / mbtree=1 / bitrate=15000 / ratetol=1.0 / qcomp=0.00 / qpmin=10 / qpmax=51 / qpstep=4 / ip_ratio=1.41 / aq=1:1.00
    Default                                  : Yes
    Forced                                   : No


    Audio #1
    ID                                       : 2
    Format                                   : TrueHD
    Codec ID                                 : A_TRUEHD
    Duration                                 : 2 h 21 min
    Bit rate mode                            : Variable
    Bit rate                                 : 2 151 kb/s
    Maximum bit rate                         : 4 197 kb/s
    Channel(s)                               : 8 channels
    Channel positions                        : Front: L C R, Side: L R, Back: L R, LFE
    Sampling rate                            : 48.0 kHz
    Frame rate                               : 1 200.000 FPS (40 spf)
    Compression mode                         : Lossless
    Stream size                              : 2.12 GiB (11%)
    Title                                    : 重混次世代公映国配.truehd7.1-2218Kb
    Default                                  : Yes
    Forced                                   : No


    Audio #2
    ID                                       : 3
    Format                                   : AC-3
    Format/Info                              : Audio Coding 3
    Format settings, Endianness              : Big
    Codec ID                                 : A_AC3
    Duration                                 : 2 h 21 min
    Bit rate mode                            : Constant
    Bit rate                                 : 640 kb/s
    Channel(s)                               : 6 channels
    Channel positions                        : Front: L C R, Side: L R, LFE
    Sampling rate                            : 48.0 kHz
    Frame rate                               : 31.250 FPS (1536 spf)
    Bit depth                                : 16 bits
    Compression mode                         : Lossy
    Stream size                              : 647 MiB (3%)
    Title                                    : 重混公映国配AC3.DD5.1-640Kbps
    Service kind                             : Complete Main
    Default                                  : No
    Forced                                   : No


    Audio #3
    ID                                       : 4
    Format                                   : DTS
    Format/Info                              : Digital Theater Systems
    Mode                                     : 16
    Format settings, Endianness              : Big
    Codec ID                                 : A_DTS
    Duration                                 : 2 h 21 min
    Bit rate mode                            : Constant
    Bit rate                                 : 1 509 kb/s
    Channel(s)                               : 6 channels
    Channel positions                        : Front: L C R, Side: L R, LFE
    Sampling rate                            : 48.0 kHz
    Frame rate                               : 93.750 FPS (512 spf)
    Bit depth                                : 24 bits
    Compression mode                         : Lossy
    Stream size                              : 1.49 GiB (8%)
    Title                                    : DTS英语原音
    Language                                 : English
    Default                                  : No
    Forced                                   : No
    注意!部分3D播放设备是不支持次世代8声道音轨的..播放时会无声音等各种情况,如不支持播放把该音轨提出 保留AC3音轨即可。
    游客,如果您要查看本帖隐藏内容请回复



  • TA的每日心情
    慵懒
    4 小时前
  • 签到天数: 84 天

    [LV.6]常住居民II

    发表于 2017-9-16 19:53:20 | 显示全部楼层
    不错,非常喜欢!
    回复 支持 反对

    使用道具 举报

  • TA的每日心情
    开心
    11 小时前
  • 签到天数: 842 天

    [LV.10]以坛为家III

    发表于 2017-9-16 19:59:06 | 显示全部楼层
    感谢楼主分享
    回复 支持 反对

    使用道具 举报

  • TA的每日心情
    开心
    6 小时前
  • 签到天数: 1139 天

    [LV.10]以坛为家III

    发表于 2017-9-16 20:01:41 | 显示全部楼层
    有你精彩、全屏字幕呈献、3D效果更棒!谢谢您!
    回复 支持 反对

    使用道具 举报

  • TA的每日心情
    奋斗
    13 小时前
  • 签到天数: 1069 天

    [LV.10]以坛为家III

    发表于 2017-9-16 20:02:52 | 显示全部楼层
    沙发还是我来坐的.顶一下
    回复 支持 反对

    使用道具 举报

  • TA的每日心情
    奋斗
    2017-10-13 12:38
  • 签到天数: 16 天

    [LV.4]偶尔看看III

    发表于 2017-9-16 20:04:30 | 显示全部楼层
    感谢楼主分享。
    回复 支持 反对

    使用道具 举报

  • TA的每日心情
    慵懒
    2017-10-13 18:48
  • 签到天数: 359 天

    [LV.8]以坛为家I

    发表于 2017-9-16 20:05:30 | 显示全部楼层
    好好好!感谢分享
    回复 支持 反对

    使用道具 举报

  • TA的每日心情
    奋斗
    13 小时前
  • 签到天数: 1069 天

    [LV.10]以坛为家III

    发表于 2017-9-16 20:13:01 | 显示全部楼层
    早就看了3D电影. 3D效果还不错
    回复 支持 反对

    使用道具 举报

    您需要登录后才可以回帖 登录 | 立即注册

    本版积分规则

    本站资源均来自互联网,如果侵犯了您的权益请与我们联系,我们将在24小时内删除。

    QQ|申请友链|小黑屋|手机版|Archiver|站长工具|飞影3D论坛  

    GMT+8, 2017-10-23 21:33 , Processed in 0.156201 second(s), 28 queries .

    Powered by Discuz! X3.2

    © 2001-2013 Comsenz Inc.

    ICP备案:黔ICP备14003922号-4
    快速回复 返回顶部 返回列表