飞影3D论坛

 找回密码
 立即注册

QQ登录

只需一步,快速开始

扫一扫,访问微社区

3D超凡蜘蛛侠2(内置3D字幕版)(国英双语)
查看: 522|回复: 59

[射雕英雄传之东成西就][1080P][MKV][2.18GB][国粤双语][.HDTV.1080p.x265.AAC(5.1).2Audios]

  [复制链接]
  • TA的每日心情
    奋斗
    2 小时前
  • 签到天数: 487 天

    [LV.9]以坛为家II

    发表于 2019-1-11 22:36:37 | 显示全部楼层 |阅读模式
    电影海报
    东成西就.jpg
    影片信息
    ◎译  名 射雕英雄传之东成西就/东成西就/大英雄 (日本)
    ◎片  名 The.Eagle.Shooting.Heroes
    ◎年  代 1993
    ◎国  家 香港
    ◎类  别 喜剧/古装
    ◎语  言 粤语/普通话
    ◎上映日期 1993-02-05
    ◎IMDB评分 7.2/10 from 1,780 users
    ◎IMDb链接 https://www.imdb.com/title/tt0108074/
    ◎豆瓣评分 8.7/10 from 337,831 users
    ◎豆瓣链接 https://movie.douban.com/subject/1316510/
    ◎时光评分 7.7/10 from 76,200 users
    ◎时光链接 http://movie.mtime.com/11728/
    ◎文件格式 X264 + AAC
    ◎视频尺寸 1920 x 1080
    ◎文件大小 2.18GiB
    ◎片  长 100 分钟/Hong Kong:113 分钟
    ◎导  演 刘镇伟 Jeffrey Lau
    ◎主  演 梁朝伟 Tony Leung Chiu Wai
          张国荣 Leslie Cheung
          张学友 Jacky Cheung
          梁家辉 Tony Leung Ka Fai
          林青霞 Brigitte Lin
          王祖贤 Joey Wong
          张曼玉 Maggie Cheung
          刘嘉玲 Carina Lau
          叶玉卿 Veronica Yip
          钟镇涛 Kenny Bee
          鲍起静 Hee Ching Paw

    内容简介
      金轮国王妃(叶玉卿)与表哥欧阳锋(梁朝伟)有染,为霸占江山,他们毒死了国王,但没找到传国玉玺。得知玉玺在前往九宫山找寻其师父求助的三公主(林青霞)手里后,欧阳锋企图抢到手但没成功。糊涂国师(张曼玉)在淫威下屈服,查出三公主的具体下落,欧阳锋乘火箭金靴追赶,却误脱落一只插死刚出关的王重阳(钟镇涛),奄奄一息的王重阳恳求适逢路过的三公主找到其师弟周伯通(刘嘉玲)代为报仇。
      逃到九宫山的三公主邀得师弟黄药师(张国荣)与师妹(王祖贤)相助,再加上前来寻找表妹的洪七(张学友)、找到真心人才能成仙的段智兴(梁家辉),一场与欧阳锋的生死恶战蓄势待发……

    截图预览
    1.jpg 2.jpg
    3.jpg 4.jpg
    参数信息
    1. General
    2. Unique ID                      : 220675416369218666432250529824751005923 (0xA6048A0B7904BA149FD2276780ECB0E3)
    3. Complete name                  : The.Eagle.Shooting.Heroes.1993.HDTV.1080p.x265.AAC(5.1).2Audios.GREENOTEA.mkv
    4. Format                         : Matroska
    5. Format version                 : Version 4
    6. File size                      : 2.19 GiB
    7. Duration                       : 1 h 38 min
    8. Overall bit rate               : 3 177 kb/s
    9. Movie name                     : [url]www.greenotea.com[/url]
    10. Encoded date                   : UTC 2015-10-18 04:53:47
    11. Writing application            : mkvmerge v7.5.0 ('Glass Culture') 64bit built on Jan  4 2015 16:48:44
    12. Writing library                : libebml v1.3.1 + libmatroska v1.4.2

    13. Video
    14. ID                             : 1
    15. Format                         : HEVC
    16. Format/Info                    : High Efficiency Video Coding
    17. Format profile                 : Main@L4@Main
    18. Codec ID                       : V_MPEGH/ISO/HEVC
    19. Duration                       : 1 h 38 min
    20. Bit rate                       : 2 853 kb/s
    21. Width                          : 1 920 pixels
    22. Height                         : 1 080 pixels
    23. Display aspect ratio           : 16:9
    24. Frame rate mode                : Constant
    25. Frame rate                     : 25.000 FPS
    26. Color space                    : YUV
    27. Chroma subsampling             : 4:2:0
    28. Bit depth                      : 8 bits
    29. Bits/(Pixel*Frame)             : 0.055
    30. Stream size                    : 1.97 GiB (90%)
    31. Writing library                : x265 1.4+217-78ae7996a1ce:[Windows][GCC 4.7.1][64 bit]
    32. Encoding settings              : wpp / ctu=32 / tu-intra-depth=1 / tu-inter-depth=1 / me=1 / subme=1 / merange=57 / no-rect / no-amp / max-merge=2 / temporal-mvp / early-skip / no-fast-cbf / rdpenalty=0 / no-tskip / no-tskip-fast / strong-intra-smoothing / no-lossless / no-cu-lossless / no-constrained-intra / fast-intra / open-gop / interlace=0 / keyint=250 / min-keyint=25 / scenecut=40 / rc-lookahead=15 / bframes=4 / bframe-bias=0 / b-adapt=0 / ref=1 / weightp / no-weightb / aq-mode=1 / aq-strength=1.00 / cbqpoffs=0 / crqpoffs=0 / rd=2 / psy-rd=0.00 / psy-rdoq=0.00 / signhide / lft / sao / no-sao-non-deblock / b-pyramid / no-cutree / rc=crf / crf=23.0 / qcomp=0.60 / qpmin=0 / qpmax=51 / qpstep=4 / ipratio=1.40 / pbratio=1.30
    33. Default                        : Yes
    34. Forced                         : No

    35. Audio #1
    36. ID                             : 2
    37. Format                         : AAC LC
    38. Format/Info                    : Advanced Audio Codec Low Complexity
    39. Codec ID                       : A_AAC-2
    40. Duration                       : 1 h 38 min
    41. Bit rate                       : 128 kb/s
    42. Channel(s)                     : 2 channels
    43. Channel layout                 : L R
    44. Sampling rate                  : 48.0 kHz
    45. Frame rate                     : 46.875 FPS (1024 SPF)
    46. Compression mode               : Lossy
    47. Delay relative to video        : -80 ms
    48. Stream size                    : 90.3 MiB (4%)
    49. Title                          : 国语
    50. Language                       : Chinese
    51. Default                        : Yes
    52. Forced                         : No

    53. Audio #2
    54. ID                             : 3
    55. Format                         : AAC LC
    56. Format/Info                    : Advanced Audio Codec Low Complexity
    57. Codec ID                       : A_AAC-2
    58. Duration                       : 1 h 38 min
    59. Bit rate                       : 192 kb/s
    60. Channel(s)                     : 6 channels
    61. Channel layout                 : C L R Ls Rs LFE
    62. Sampling rate                  : 44.1 kHz
    63. Frame rate                     : 43.066 FPS (1024 SPF)
    64. Compression mode               : Lossy
    65. Delay relative to video        : -58 ms
    66. Stream size                    : 135 MiB (6%)
    67. Title                          : 粤语(5.1环绕声)
    68. Language                       : Chinese
    69. Default                        : No
    70. Forced                         : No

    71. Text #1
    72. ID                             : 4
    73. Format                         : SSA
    74. Codec ID                       : S_TEXT/SSA
    75. Codec ID/Info                  : Sub Station Alpha
    76. Duration                       : 1 h 37 min
    77. Bit rate                       : 189 b/s
    78. Count of elements              : 1492
    79. Compression mode               : Lossless
    80. Stream size                    : 135 KiB (0%)
    81. Title                          : 中文特效by晓之绿
    82. Language                       : Chinese
    83. Default                        : Yes
    84. Forced                         : No

    85. Text #2
    86. ID                             : 5
    87. Format                         : UTF-8
    88. Codec ID                       : S_TEXT/UTF8
    89. Codec ID/Info                  : UTF-8 Plain Text
    90. Duration                       : 1 h 36 min
    91. Bit rate                       : 66 b/s
    92. Count of elements              : 1490
    93. Stream size                    : 46.7 KiB (0%)
    94. Title                          : 简体中文
    95. Language                       : Chinese
    96. Default                        : No
    97. Forced                         : No

    98. Text #3
    99. ID                             : 6
    100. Format                         : UTF-8
    101. Codec ID                       : S_TEXT/UTF8
    102. Codec ID/Info                  : UTF-8 Plain Text
    103. Duration                       : 1 h 36 min
    104. Bit rate                       : 66 b/s
    105. Count of elements              : 1490
    106. Stream size                    : 46.7 KiB (0%)
    107. Title                          : 繁体中文
    108. Language                       : Chinese
    109. Default                        : No
    110. Forced                         : No
    复制代码
    下载地址

    游客,如果您要查看本帖隐藏内容请回复


  • TA的每日心情
    慵懒
    2019-1-11 23:06
  • 签到天数: 42 天

    [LV.5]常住居民I

    发表于 2019-1-11 23:11:25 | 显示全部楼层

    感谢楼主分享!
    回复 支持 反对

    使用道具 举报

  • TA的每日心情
    奋斗
    20 小时前
  • 签到天数: 746 天

    [LV.9]以坛为家II

    发表于 2019-1-11 23:17:32 | 显示全部楼层
    let's take a look
    回复 支持 反对

    使用道具 举报

  • TA的每日心情
    开心
    20 小时前
  • 签到天数: 789 天

    [LV.10]以坛为家III

    发表于 2019-1-11 23:55:34 | 显示全部楼层
    经典电影,谢谢分享
    回复 支持 反对

    使用道具 举报

  • TA的每日心情
    奋斗
    15 小时前
  • 签到天数: 345 天

    [LV.8]以坛为家I

    发表于 2019-1-12 07:10:39 | 显示全部楼层
    感谢楼主分享
    回复 支持 反对

    使用道具 举报

  • TA的每日心情
    奋斗
    10 小时前
  • 签到天数: 991 天

    [LV.10]以坛为家III

    发表于 2019-1-12 08:03:01 | 显示全部楼层
    赞一个,收藏了,谢谢楼主分享,顶一下。
    回复 支持 反对

    使用道具 举报

  • TA的每日心情
    无聊
    13 小时前
  • 签到天数: 532 天

    [LV.9]以坛为家II

    发表于 2019-1-12 08:41:49 | 显示全部楼层
    经典电影收藏了看看
    回复 支持 反对

    使用道具 举报

  • TA的每日心情

    12 小时前
  • 签到天数: 1382 天

    [LV.10]以坛为家III

    发表于 2019-1-12 09:14:20 | 显示全部楼层
    经典中的经典,简直就是电影中的NBA
    回复 支持 反对

    使用道具 举报

  • TA的每日心情
    开心
    14 小时前
  • 签到天数: 787 天

    [LV.10]以坛为家III

    发表于 2019-1-12 09:19:15 | 显示全部楼层
    谢谢楼主分享!
    回复 支持 反对

    使用道具 举报

    您需要登录后才可以回帖 登录 | 立即注册

    本版积分规则

    本站资源均来自互联网,如果侵犯了您的权益请与我们联系,我们将在24小时内删除。

    QQ|申请友链|小黑屋|手机版|Archiver|站长工具|飞影3D论坛  

    GMT+8, 2019-3-25 21:48 , Processed in 0.164646 second(s), 27 queries .

    Powered by Discuz! X3.2

    © 2001-2013 Comsenz Inc.

    ICP备案:黔ICP备14003922号-4
    快速回复 返回顶部 返回列表