飞影3D论坛

 找回密码
 立即注册

QQ登录

只需一步,快速开始

扫一扫,访问微社区

3D超凡蜘蛛侠2(内置3D字幕版)(国英双语)
查看: 2720|回复: 541

[左右][3D收藏版【头号玩家】3D出屏国配动态完美特效字幕-次世代国语][1080P][MKV][17G][国英双语][2018.BluRay.x264.AC3.DTS-飞影小曹]

  [复制链接]
  • TA的每日心情
    开心
    昨天 15:10
  • 签到天数: 1331 天

    [LV.10]以坛为家III

    发表于 2018-7-24 22:03:02 | 显示全部楼层 |阅读模式
    本帖最后由 13879384998 于 2018-8-2 21:31 编辑

    p2517810534.webp.jpg
    混音5.1国语音轨出之国语视界bobo 大师之手 音质极佳.  国配字幕由 国语视界fishcp163 听录制作.由衷感谢!

    全片全程动态效注释及彩蛋注释,续耗时一周完成3D特效制作.见截图!

    默认次世代7.1-2721Kbps混音国语+DD5.1-640Kbps混音国语+DTS英语原音

    做种不易,费时费力,请理性回帖勿灌水!

    aaa.jpg
    ◎译  名 头号玩家/玩家一号/挑战者1号(港)/一级玩家(台)/一号玩家

    ◎片  名 Ready Player One
    ◎年  代 2018
    ◎产  地 美国
    ◎类  别 动作/科幻/冒险
    ◎语  言 英语/日语/汉语普通话
    ◎上映日期 2018-03-11(西南偏南电影节)/2018-03-29(美国)/2018-03-30(中国大陆)
    ◎IMDb评分  7.7/10 from 166,676 users
    ◎IMDb链接  http://www.imdb.com/title/tt1677720/
    ◎豆瓣评分 8.7/10 from 474,220 users
    ◎豆瓣链接 https://movie.douban.com/subject/4920389/
    ◎片  长 140分钟
    ◎导  演 史蒂文·斯皮尔伯格 Steven Spielberg
    ◎主  演 泰伊·谢里丹 Tye Sheridan
          奥利维亚·库克 Olivia Cooke
          本·门德尔森 Ben Mendelsohn
          马克·里朗斯 Mark Rylance
          丽娜·维特 Lena Waithe
          森崎温 Win Morisaki
          菲利普·赵 Philip Zhao
          西蒙·佩吉 Simon Pegg
          T·J·米勒 T.J. Miller
          汉娜·乔恩-卡门 Hannah John-Kamen
          拉尔夫·尹爱森 Ralph Ineson
          苏珊·林奇 Susan Lynch
          克莱尔·希金斯 Clare Higgins
          劳伦斯·斯佩尔曼 Laurence Spellman
          佩蒂塔·维克斯 Perdita Weeks
          艾萨克·安德鲁斯 Isaac Andrews
    p2516306833.webp.jpg

    剧情简介  ·  ·  ·  ·  ·  ·


      2045年,处于混乱和崩溃边缘的现实世界令人失望,人们将救赎的希望寄托于“绿洲”,一个由鬼才詹姆斯·哈利迪(马克·里朗斯饰)一手打造的虚拟游戏宇宙。人们只要戴上VR设备,就可以进入这个与现实形成强烈反差的虚拟世界。在这个世界中,有繁华的都市,形象各异、光彩照人的玩家,而不同次元的影视游戏中的经典角色也可以在这里齐聚。就算你在现实中是一个挣扎在社会边缘的失败者,在“绿洲”里也依然可以成为超级英雄,再遥远的梦想都变得触手可及。哈利迪弥留之际,宣布将巨额财产和“绿洲”的所有权留给第一个闯过三道谜题,找出他在游戏中藏匿彩蛋的人,自此引发了一场全世界范围内的竞争 。

    1 头号玩家.3D出屏动态特效国配字幕-5.1国语.2018.1080p.BluRay.x264.AC3.DTS-飞影小.gif 2 头号玩家.3D出屏动态特效国配字幕-5.1国语.2018.1080p.BluRay.x264.AC3.DTS-飞影小.gif 3 头号玩家.3D出屏动态特效国配字幕-5.1国语.2018.1080p.BluRay.x264.AC3.DTS-飞影小.gif 4 头号玩家.3D出屏动态特效国配字幕-5.1国语.2018.1080p.BluRay.x264.AC3.DTS-飞影小.gif 5 头号玩家.3D出屏动态特效国配字幕-5.1国语.2018.1080p.BluRay.x264.AC3.DTS-飞影小.gif 6 头号玩家.3D出屏动态特效国配字幕-5.1国语.2018.1080p.BluRay.x264.AC3.DTS-飞影小.gif 7 头号玩家.3D出屏动态特效国配字幕-5.1国语.2018.1080p.BluRay.x264.AC3.DTS-飞影小.gif 8 头号玩家.3D出屏动态特效国配字幕-5.1国语.2018.1080p.BluRay.x264.AC3.DTS-飞影小.gif 9 头号玩家.3D出屏动态特效国配字幕-5.1国语.2018.1080p.BluRay.x264.AC3.DTS-飞影小.gif 10 头号玩家.3D出屏动态特效国配字幕-5.1国语.2018.1080p.BluRay.x264.AC3.DTS-飞影小.gif 11 头号玩家.3D出屏动态特效国配字幕-5.1国语.2018.1080p.BluRay.x264.AC3.DTS-飞影小.gif 12 头号玩家.3D出屏动态特效国配字幕-5.1国语.2018.1080p.BluRay.x264.AC3.DTS-飞影小.gif 13 头号玩家.3D出屏动态特效国配字幕-5.1国语.2018.1080p.BluRay.x264.AC3.DTS-飞影小.gif 14 头号玩家.3D出屏动态特效国配字幕-5.1国语.2018.1080p.BluRay.x264.AC3.DTS-飞影小.gif 15 头号玩家.3D出屏动态特效国配字幕-5.1国语.2018.1080p.BluRay.x264.AC3.DTS-飞影小.gif 16 头号玩家.3D出屏动态特效国配字幕-5.1国语.2018.1080p.BluRay.x264.AC3.DTS-飞影小.gif 17 头号玩家.3D出屏动态特效国配字幕-5.1国语.2018.1080p.BluRay.x264.AC3.DTS-飞影小.gif 18 头号玩家.3D出屏动态特效国配字幕-5.1国语.2018.1080p.BluRay.x264.AC3.DTS-飞影小.gif 19 头号玩家.3D出屏动态特效国配字幕-5.1国语.2018.1080p.BluRay.x264.AC3.DTS-飞影小.gif 20 头号玩家.3D出屏动态特效国配字幕-5.1国语.2018.1080p.BluRay.x264.AC3.DTS-飞影小.gif


    1 头号玩家.3D出屏动态特效国配字幕-5.1国语.2018.1080p.BluRay.x264.AC3.DTS-飞影小.jpg 2 头号玩家.3D出屏动态特效国配字幕-5.1国语.2018.1080p.BluRay.x264.AC3.DTS-飞影小.jpg 3 头号玩家.3D出屏动态特效国配字幕-5.1国语.2018.1080p.BluRay.x264.AC3.DTS-飞影小.jpg 4 头号玩家.3D出屏动态特效国配字幕-5.1国语.2018.1080p.BluRay.x264.AC3.DTS-飞影小.jpg 5 头号玩家.3D出屏动态特效国配字幕-5.1国语.2018.1080p.BluRay.x264.AC3.DTS-飞影小.jpg 6 头号玩家.3D出屏动态特效国配字幕-5.1国语.2018.1080p.BluRay.x264.AC3.DTS-飞影小.jpg 7 头号玩家.3D出屏动态特效国配字幕-5.1国语.2018.1080p.BluRay.x264.AC3.DTS-飞影小.jpg 8 头号玩家.3D出屏动态特效国配字幕-5.1国语.2018.1080p.BluRay.x264.AC3.DTS-飞影小.jpg 9 头号玩家.3D出屏动态特效国配字幕-5.1国语.2018.1080p.BluRay.x264.AC3.DTS-飞影小.jpg 10 头号玩家.3D出屏动态特效国配字幕-5.1国语.2018.1080p.BluRay.x264.AC3.DTS-飞影小.jpg 11 头号玩家.3D出屏动态特效国配字幕-5.1国语.2018.1080p.BluRay.x264.AC3.DTS-飞影小.jpg 12 头号玩家.3D出屏动态特效国配字幕-5.1国语.2018.1080p.BluRay.x264.AC3.DTS-飞影小.jpg 13 头号玩家.3D出屏动态特效国配字幕-5.1国语.2018.1080p.BluRay.x264.AC3.DTS-飞影小.jpg 15 头号玩家.3D出屏动态特效国配字幕-5.1国语.2018.1080p.BluRay.x264.AC3.DTS-飞影小.jpg 14 头号玩家.3D出屏动态特效国配字幕-5.1国语.2018.1080p.BluRay.x264.AC3.DTS-飞影小.jpg 16 头号玩家.3D出屏动态特效国配字幕-5.1国语.2018.1080p.BluRay.x264.AC3.DTS-飞影小.jpg
    General
    Unique ID                                : 244095552131849353451165066330761180405 (0xB7A317E37144A60580C18F999231B4F5)
    Complete name                            : 头号玩家.3D出屏动态特效国配字幕-5.1国语.2018.1080p.BluRay.x264.AC3.DTS-飞影小曹.mkv
    Format                                   : Matroska
    Format version                           : Version 4 / Version 2
    File size                                : 17.1 GiB
    Duration                                 : 2 h 19 min
    Overall bit rate                         : 17.4 Mb/s
    Encoded date                             : UTC 2018-07-24 15:19:45
    Writing application                      : mkvmerge v9.9.0 ('Pick Up') 32bit
    Writing library                          : libebml v1.3.4 + libmatroska v1.4.5 / Lavf52.84.0
    Cover                                    : Yes
    Attachments                              : small_cover.jpg / small_cover_land.jpg / cover.jpg / cover_land.jpg

    Video
    ID                                       : 1
    Format                                   : AVC
    Format/Info                              : Advanced Video Codec
    Format profile                           : High@L4.1
    Format settings, CABAC                   : Yes
    Format settings, ReFrames                : 5 frames
    Format settings, GOP                     : M=4, N=13
    Codec ID                                 : V_MPEG4/ISO/AVC
    Duration                                 : 2 h 19 min
    Bit rate                                 : 14.0 Mb/s
    Width                                    : 1 920 pixels
    Height                                   : 800 pixels
    Display aspect ratio                     : 2.40:1
    Frame rate mode                          : Constant
    Frame rate                               : 23.976 FPS
    Color space                              : YUV
    Chroma subsampling                       : 4:2:0
    Bit depth                                : 8 bits
    Scan type                                : Progressive
    Bits/(Pixel*Frame)                       : 0.380
    Stream size                              : 13.5 GiB (79%)
    Title                                    : 头号玩家.3D出屏动态特效国配字幕-5.1国语.2018.1080p.BluRay.x264.AC3.DTS-飞影小曹
    Writing library                          : x264 core 110
    Encoding settings                        : cabac=1 / ref=5 / deblock=1:0:0 / analyse=0x3:0x133 / me=hex / subme=8 / psy=1 / psy_rd=1.00:0.00 / mixed_ref=1 / me_range=16 / chroma_me=0 / trellis=1 / 8x8dct=1 / cqm=0 / deadzone=21,11 / fast_pskip=1 / chroma_qp_offset=-2 / threads=2 / sliced_threads=0 / nr=0 / decimate=1 / interlaced=0 / constrained_intra=0 / bframes=3 / b_pyramid=0 / b_adapt=0 / b_bias=0 / direct=3 / weightb=1 / open_gop=0 / weightp=0 / keyint=13 / keyint_min=7 / scenecut=0 / intra_refresh=0 / rc_lookahead=13 / rc=abr / mbtree=1 / bitrate=14000 / ratetol=1.0 / qcomp=0.00 / qpmin=10 / qpmax=51 / qpstep=4 / ip_ratio=1.41 / aq=1:1.00
    Default                                  : Yes
    Forced                                   : No

    Audio #1
    ID                                       : 2
    Format                                   : DTS
    Format/Info                              : Digital Theater Systems
    Format profile                           : MA / Core
    Mode                                     : 16
    Format settings, Endianness              : Big
    Codec ID                                 : A_DTS
    Duration                                 : 2 h 19 min
    Bit rate mode                            : Variable / Constant
    Bit rate                                 : 2 577 kb/s / 1 509 kb/s
    Channel(s)                               : 8 channels / 6 channels
    Channel positions                        : Front: L C R, Side: L R, Back: L R, LFE / Front: L C R, Side: L R, LFE
    Sampling rate                            : 48.0 kHz
    Frame rate                               : 93.750 FPS (512 spf)
    Bit depth                                : 16 bits
    Compression mode                         : Lossless / Lossy
    Stream size                              : 2.52 GiB (15%)
    Title                                    : 7.1次世代混音
    Language                                 : Chinese
    Default                                  : Yes
    Forced                                   : No

    Audio #2
    ID                                       : 3
    Format                                   : AC-3
    Format/Info                              : Audio Coding 3
    Format settings, Endianness              : Big
    Codec ID                                 : A_AC3
    Duration                                 : 2 h 19 min
    Bit rate mode                            : Constant
    Bit rate                                 : 640 kb/s
    Channel(s)                               : 6 channels
    Channel positions                        : Front: L C R, Side: L R, LFE
    Sampling rate                            : 48.0 kHz
    Frame rate                               : 31.250 FPS (1536 spf)
    Bit depth                                : 16 bits
    Compression mode                         : Lossy
    Delay relative to video                  : 800 ms
    Stream size                              : 641 MiB (4%)
    Title                                    : 5.1-640K bobo-混音
    Language                                 : Chinese
    Service kind                             : Complete Main
    Default                                  : No
    Forced                                   : No

    Audio #3
    ID                                       : 4
    Format                                   : AC-3
    Format/Info                              : Audio Coding 3
    Format settings, Endianness              : Big
    Codec ID                                 : A_AC3
    Duration                                 : 2 h 19 min
    Bit rate mode                            : Constant
    Bit rate                                 : 448 kb/s
    Channel(s)                               : 6 channels
    Channel positions                        : Front: L C R, Side: L R, LFE
    Sampling rate                            : 48.0 kHz
    Frame rate                               : 31.250 FPS (1536 spf)
    Bit depth                                : 16 bits
    Compression mode                         : Lossy
    Stream size                              : 449 MiB (3%)
    Title                                    : AC3英语音轨
    Language                                 : English
    Service kind                             : Complete Main
    Default                                  : No
    Forced                                   : No

    游客,如果您要查看本帖隐藏内容请回复

  • TA的每日心情
    开心
    昨天 15:10
  • 签到天数: 1331 天

    [LV.10]以坛为家III

     楼主| 发表于 2018-7-24 22:36:13 | 显示全部楼层
    bobo98 发表于 2018-7-24 22:18
    感谢斑主分享,谢谢!
    如果能弄265的就更好了

    H265格式虽好,清晰度较高,但是目前普及度不高,估计大部分用户播放设备不支持H265播放,电脑除外!
    回复 支持 1 反对 0

    使用道具 举报

  • TA的每日心情
    奋斗
    1 小时前
  • 签到天数: 46 天

    [LV.5]常住居民I

    发表于 2018-7-24 22:05:44 | 显示全部楼层
    下载大神完美版看看
    回复 支持 反对

    使用道具 举报

  • TA的每日心情
    奋斗
    13 小时前
  • 签到天数: 508 天

    [LV.9]以坛为家II

    发表于 2018-7-24 22:08:11 | 显示全部楼层
    谢谢版主分享,么么哒
    回复 支持 反对

    使用道具 举报

  • TA的每日心情
    开心
    昨天 19:16
  • 签到天数: 95 天

    [LV.6]常住居民II

    发表于 2018-7-24 22:10:11 | 显示全部楼层
    大神,就等你了
    回复 支持 反对

    使用道具 举报

  • TA的每日心情

    5 小时前
  • 签到天数: 124 天

    [LV.7]常住居民III

    发表于 2018-7-24 22:12:17 | 显示全部楼层

    谢谢版主分享,么么哒
    回复 支持 反对

    使用道具 举报

  • TA的每日心情

    5 小时前
  • 签到天数: 124 天

    [LV.7]常住居民III

    发表于 2018-7-24 22:12:34 | 显示全部楼层

    谢谢版主分享,么么哒
    回复 支持 反对

    使用道具 举报

  • TA的每日心情
    奋斗
    14 小时前
  • 签到天数: 173 天

    [LV.7]常住居民III

    发表于 2018-7-24 22:18:08 | 显示全部楼层
    感谢斑主分享,谢谢!
    如果能弄265的就更好了
    回复 支持 反对

    使用道具 举报

  • TA的每日心情
    慵懒
    4 天前
  • 签到天数: 19 天

    [LV.4]偶尔看看III

    发表于 2018-7-24 22:18:44 | 显示全部楼层
    这个好看吗?
    回复 支持 反对

    使用道具 举报

  • TA的每日心情
    奋斗
    7 小时前
  • 签到天数: 493 天

    [LV.9]以坛为家II

    发表于 2018-7-24 22:22:58 | 显示全部楼层
    大神就是大神,完美,必须收藏
    回复 支持 反对

    使用道具 举报

    您需要登录后才可以回帖 登录 | 立即注册

    本版积分规则

    本站资源均来自互联网,如果侵犯了您的权益请与我们联系,我们将在24小时内删除。

    QQ|申请友链|小黑屋|手机版|Archiver|站长工具|飞影3D论坛  

    GMT+8, 2018-8-21 14:48 , Processed in 0.119134 second(s), 31 queries .

    Powered by Discuz! X3.2

    © 2001-2013 Comsenz Inc.

    ICP备案:黔ICP备14003922号-4
    快速回复 返回顶部 返回列表