飞影3D论坛

 找回密码
 立即注册

QQ登录

只需一步,快速开始

扫一扫,访问微社区

3D超凡蜘蛛侠2(内置3D字幕版)(国英双语)
查看: 2352|回复: 455

[左右][3D收藏版【环太平洋2:雷霆再起】3D出屏国配动态特效字幕-5.1国语][1080P][MKV][12.80G][国英双语][2018.BluRay.Half-SBS.x264.AC3.DTS-飞影小曹]

  [复制链接]
  • TA的每日心情
    开心
    7 小时前
  • 签到天数: 1307 天

    [LV.10]以坛为家III

    发表于 2018-6-28 01:19:27 | 显示全部楼层 |阅读模式
    本帖最后由 13879384998 于 2018-6-28 13:14 编辑

    p2517850522.webp.jpg

    混音国语音轨出之国语视界bobo 大师之手 音质极佳.  国配对白字幕FZQ 听录制作.衷感谢!

    全片全程特效注释.陆陆续续耗时一周完成3D特效制作.见截图!

    默认DD5.1-640Kbps混音公映国语+DTS英语原音

    做种不易,费时费力,请理性回帖勿灌水!
    aaa.jpg
    ◎译  名 环太平洋:雷霆再起/环太平洋2/环太平洋2:雷霆再起/环太平洋2:起义时刻(台)/悍战太平洋2:起义时空(港)

    ◎片  名 Pacific Rim: Uprising
    ◎年  代 2018
    ◎产  地 美国/中国大陆
    ◎类  别 动作/科幻/冒险
    ◎语  言 英语/汉语普通话
    ◎上映日期 2018-03-23(美国)/2018-03-23(中国大陆)
    ◎IMDb评分  5.7/10 from 44,905 users
    ◎IMDb链接  http://www.imdb.com/title/tt2557478/
    ◎豆瓣评分 5.7/10 from 106,307 users
    ◎豆瓣链接 https://movie.douban.com/subject/20435622/
    ◎片  长 111分钟
    ◎导  演 斯蒂文·S·迪奈特 Steven S. DeKnight
    ◎主  演 约翰·博耶加 John Boyega
           斯科特·伊斯特伍德 Scott Eastwood
          卡莉·史派妮 Cailee Spaeny
          景甜 Tian Jing
    p2517007481.webp.jpg                         
    ◎简  介

      在对抗外星人的入侵并成功封住虫洞的十年后,人类从废墟中站起来。他们忘记了恐惧,纵情狂欢,其中便包括斯特克·潘特考斯特将军的儿子杰克(约翰·博耶加 John Boyega 饰)。在一次偷到废弃机甲零件的过程中,他偶然遭遇以一己之力组装迷你机甲的少女阿玛拉(卡莉·史派妮 Cailee Spaeny 饰)。此后,在姐姐森麻子(菊地凛子 饰)的安排下,杰克和阿玛拉莫玉兰基地接受机甲驾驶员的培训工作。与此同时,总部位于上海的邵氏集团,在总裁邵丽雯(景甜 饰)的主持下,正致力于以无人机甲取代传统机甲。就在这关键时刻,一个与复仇流浪者极其相似的黑色机甲突然出现,并向人类展开了无情杀戮。
      人们发现,遥远的外星“先驱”仍在蠢蠢欲动,时刻等待着消灭地球人的时机……

    环太平洋2:雷霆再起.2018.1080p.3D.BluRay.Half-SBS.x264.DTS-HD.MA.7.1 (1)_2018062.gif 环太平洋2:雷霆再起.2018.1080p.3D.BluRay.Half-SBS.x264.DTS-HD.MA.7.1 (1)_2018062.gif 环太平洋2:雷霆再起.2018.1080p.3D.BluRay.Half-SBS.x264.DTS-HD.MA.7.1 (1)_2018062.gif 环太平洋2:雷霆再起.2018.1080p.3D.BluRay.Half-SBS.x264.DTS-HD.MA.7.1 (1)_2018062.gif 环太平洋2:雷霆再起.2018.1080p.3D.BluRay.Half-SBS.x264.DTS-HD.MA.7.1 (1)_2018062.gif 环太平洋2:雷霆再起.2018.1080p.3D.BluRay.Half-SBS.x264.DTS-HD.MA.7.1 (1)_2018062.gif 环太平洋2:雷霆再起.2018.1080p.3D.BluRay.Half-SBS.x264.DTS-HD.MA.7.1 (1)_2018062.gif 环太平洋2:雷霆再起.2018.1080p.3D.BluRay.Half-SBS.x264.DTS-HD.MA.7.1 (1)_2018062.gif 环太平洋2:雷霆再起.2018.1080p.3D.BluRay.Half-SBS.x264.DTS-HD.MA.7.1 (1)_2018062.gif 环太平洋2:雷霆再起.2018.1080p.3D.BluRay.Half-SBS.x264.DTS-HD.MA.7.1 (1)_2018062.gif 环太平洋2:雷霆再起.2018.1080p.3D.BluRay.Half-SBS.x264.DTS-HD.MA.7.1 (1)_2018062.gif 环太平洋2:雷霆再起.2018.1080p.3D.BluRay.Half-SBS.x264.DTS-HD.MA.7.1 (1)_2018062.gif 环太平洋2:雷霆再起.2018.1080p.3D.BluRay.Half-SBS.x264.DTS-HD.MA.7.1 (1)_2018062.gif 环太平洋2:雷霆再起.2018.1080p.3D.BluRay.Half-SBS.x264.DTS-HD.MA.7.1 (1)_2018062.gif 环太平洋2:雷霆再起.2018.1080p.3D.BluRay.Half-SBS.x264.DTS-HD.MA.7.1 (1)_2018062.gif 环太平洋2:雷霆再起.2018.1080p.3D.BluRay.Half-SBS.x264.DTS-HD.MA.7.1 (1)_2018062.gif


    环太平洋2:雷霆再起.2018.1080p.3D.BluRay.Half-SBS.x264.DTS-HD.MA.7.1 (1)_2018062.jpg 环太平洋2:雷霆再起.2018.1080p.3D.BluRay.Half-SBS.x264.DTS-HD.MA.7.1 (1)_2018062.jpg 环太平洋2:雷霆再起.2018.1080p.3D.BluRay.Half-SBS.x264.DTS-HD.MA.7.1 (1)_2018062.jpg 环太平洋2:雷霆再起.2018.1080p.3D.BluRay.Half-SBS.x264.DTS-HD.MA.7.1 (1)_2018062.jpg 环太平洋2:雷霆再起.2018.1080p.3D.BluRay.Half-SBS.x264.DTS-HD.MA.7.1 (1)_2018062.jpg 环太平洋2:雷霆再起.2018.1080p.3D.BluRay.Half-SBS.x264.DTS-HD.MA.7.1 (1)_2018062.jpg A 环太平洋2:雷霆再起.2018.3D出屏国配特效字幕-5.1国语2017.1080p.BluRay.Half-SBS..jpg 环太平洋2:雷霆再起.2018.1080p.3D.BluRay.Half-SBS.x264.DTS-HD.MA.7.1 (1)_2018062.jpg 环太平洋2:雷霆再起.2018.1080p.3D.BluRay.Half-SBS.x264.DTS-HD.MA.7.1 (1)_2018062.jpg 环太平洋2:雷霆再起.2018.1080p.3D.BluRay.Half-SBS.x264.DTS-HD.MA.7.1 (1)_2018062.jpg 环太平洋2:雷霆再起.2018.1080p.3D.BluRay.Half-SBS.x264.DTS-HD.MA.7.1 (1)_2018062.jpg
    General
    Unique ID                                : 246897418520843103988362896240687590463 (0xB9BEB69123283D229D07EA4ACFD22C3F)
    Complete name                            : H:\环太平洋2:雷霆再起.2018.3D出屏国配特效动态字幕-5.1国语2017.1080p.BluRay.Half-SBS.x264.AC3.DTS-飞影小曹.mkv
    Format                                   : Matroska
    Format version                           : Version 4 / Version 2
    File size                                : 12.8 GiB
    Duration                                 : 1 h 50 min
    Overall bit rate                         : 16.6 Mb/s
    Encoded date                             : UTC 2018-06-27 13:35:26
    Writing application                      : mkvmerge v9.9.0 ('Pick Up') 32bit
    Writing library                          : libebml v1.3.4 + libmatroska v1.4.5 / Lavf52.84.0


    Video
    ID                                       : 1
    Format                                   : AVC
    Format/Info                              : Advanced Video Codec
    Format profile                           : High@L4.1
    Format settings                          : CABAC / 5 Ref Frames
    Format settings, CABAC                   : Yes
    Format settings, ReFrames                : 5 frames
    Format settings, GOP                     : M=4, N=13
    Codec ID                                 : V_MPEG4/ISO/AVC
    Duration                                 : 1 h 50 min
    Bit rate                                 : 14.5 Mb/s
    Width                                    : 1 920 pixels
    Height                                   : 800 pixels
    Display aspect ratio                     : 2.40:1
    Frame rate mode                          : Constant
    Frame rate                               : 23.976 FPS
    Color space                              : YUV
    Chroma subsampling                       : 4:2:0
    Bit depth                                : 8 bits
    Scan type                                : Progressive
    Bits/(Pixel*Frame)                       : 0.394
    Stream size                              : 11.2 GiB (87%)
    Title                                    : 环太平洋2:雷霆再起.2018.3D出屏国配特效字幕-5.1国语2017.1080p.BluRay.Half-SBS.x264.AC3.DTS-飞影小曹
    Writing library                          : x264 core 110
    Encoding settings                        : cabac=1 / ref=5 / deblock=1:0:0 / analyse=0x3:0x133 / me=hex / subme=8 / psy=1 / psy_rd=1.00:0.00 / mixed_ref=1 / me_range=16 / chroma_me=0 / trellis=1 / 8x8dct=1 / cqm=0 / deadzone=21,11 / fast_pskip=1 / chroma_qp_offset=-2 / threads=2 / sliced_threads=0 / nr=0 / decimate=1 / interlaced=0 / constrained_intra=0 / bframes=3 / b_pyramid=0 / b_adapt=0 / b_bias=0 / direct=3 / weightb=1 / open_gop=0 / weightp=0 / keyint=13 / keyint_min=7 / scenecut=0 / intra_refresh=0 / rc_lookahead=13 / rc=abr / mbtree=1 / bitrate=14500 / ratetol=1.0 / qcomp=0.00 / qpmin=10 / qpmax=51 / qpstep=4 / ip_ratio=1.41 / aq=1:1.00
    Default                                  : Yes
    Forced                                   : No


    Audio #1
    ID                                       : 2
    Format                                   : AC-3
    Format/Info                              : Audio Coding 3
    Codec ID                                 : A_AC3
    Duration                                 : 1 h 50 min
    Bit rate mode                            : Constant
    Bit rate                                 : 640 kb/s
    Channel(s)                               : 6 channels
    Channel positions                        : Front: L C R, Side: L R, LFE
    Sampling rate                            : 48.0 kHz
    Frame rate                               : 31.250 FPS (1536 SPF)
    Bit depth                                : 16 bits
    Compression mode                         : Lossy
    Stream size                              : 507 MiB (4%)
    Title                                    : 国语音轨-bobo混音
    Service kind                             : Complete Main
    Default                                  : No
    Forced                                   : No


    Audio #2
    ID                                       : 3
    Format                                   : DTS
    Format/Info                              : Digital Theater Systems
    Codec ID                                 : A_DTS
    Duration                                 : 1 h 50 min
    Bit rate mode                            : Constant
    Bit rate                                 : 1 509 kb/s
    Channel(s)                               : 6 channels
    Channel positions                        : Front: L C R, Side: L R, LFE
    Sampling rate                            : 48.0 kHz
    Frame rate                               : 93.750 FPS (512 SPF)
    Bit depth                                : 24 bits
    Compression mode                         : Lossy
    Stream size                              : 1.17 GiB (9%)
    Title                                    : DTS英语音轨
    Language                                 : English
    Default                                  : Yes
    Forced                                   : No


    游客,如果您要查看本帖隐藏内容请回复

    该用户从未签到

    发表于 2018-6-28 01:37:50 | 显示全部楼层
    回复 支持 反对

    使用道具 举报

    该用户从未签到

    发表于 2018-6-28 01:40:48 | 显示全部楼层
    回复 支持 反对

    使用道具 举报

  • TA的每日心情
    开心
    昨天 01:49
  • 签到天数: 27 天

    [LV.4]偶尔看看III

    发表于 2018-6-28 01:49:39 | 显示全部楼层
    呵呵,好帖一定要顶,支持
    回复 支持 反对

    使用道具 举报

    该用户从未签到

    发表于 2018-6-28 02:08:00 | 显示全部楼层
    回复 支持 反对

    使用道具 举报

    该用户从未签到

    发表于 2018-6-28 02:19:33 | 显示全部楼层
    回复 支持 反对

    使用道具 举报

    该用户从未签到

    发表于 2018-6-28 02:43:09 | 显示全部楼层
    回复 支持 反对

    使用道具 举报

    该用户从未签到

    发表于 2018-6-28 02:57:02 | 显示全部楼层
    回复 支持 反对

    使用道具 举报

    该用户从未签到

    发表于 2018-6-28 02:59:54 | 显示全部楼层
    回复 支持 反对

    使用道具 举报

    您需要登录后才可以回帖 登录 | 立即注册

    本版积分规则

    本站资源均来自互联网,如果侵犯了您的权益请与我们联系,我们将在24小时内删除。

    QQ|申请友链|小黑屋|手机版|Archiver|站长工具|飞影3D论坛  

    GMT+8, 2018-7-20 09:07 , Processed in 0.102244 second(s), 28 queries .

    Powered by Discuz! X3.2

    © 2001-2013 Comsenz Inc.

    ICP备案:黔ICP备14003922号-4
    快速回复 返回顶部 返回列表