飞影3D论坛

 找回密码
 立即注册

QQ登录

只需一步,快速开始

扫一扫,访问微社区

3D超凡蜘蛛侠2(内置3D字幕版)(国英双语)
查看: 2551|回复: 766

[左右][3D收藏版【勇敢者游戏:决战丛林】出屏特效国配字幕-次世代国语][1080P][MKV][15.50G][国英双语][BluRay.x264.AC3.DTS-飞影小曹]

  [复制链接]
  • TA的每日心情
    开心
    昨天 15:58
  • 签到天数: 1231 天

    [LV.10]以坛为家III

    发表于 2018-4-4 01:19:38 | 显示全部楼层 |阅读模式
    本帖最后由 13879384998 于 2018-4-7 20:09 编辑

    p2508072074.webp.jpg
    字幕蓝本取材之..国配字幕由国语视界 22171116 大神听录制作
    衷感谢!

    亲测..该片立体效果5星级别

    默认重混次世代2251Kbps公映国语+重混国语DD5.1-640-Kbps音轨+DTS-英语原音
    国语音轨网络收集..出处不详,在此感谢制作者!

    做种不易,费时费力,请理性回帖勿灌水!
    aaa.jpg
    ◎译  名 勇敢者游戏:决战丛林/野蛮游戏:疯狂丛林(台)/逃出魔幻纪:丛林挑机(港)
    ◎片  名 Jumanji: Welcome to the Jungle
    ◎年  代 2017
    ◎产  地 美国
    ◎类  别 动作/奇幻/冒险
    ◎语  言 英语-国语
    ◎字      幕   出屏特效国配字幕
    ◎上映日期 2017-12-20(美国)/2018-01-12(中国大陆)
    ◎IMDb评分  7.2/10 from 81,315 users
    ◎IMDb链接  http://www.imdb.com/title/tt2283362/
    ◎豆瓣评分 7.2/10 from 62,953 users
    ◎豆瓣链接 https://movie.douban.com/subject/26586766/
    ◎片  长 119分钟
    ◎导  演 杰克·卡斯丹 Jake Kasdan
    ◎主  演 道恩·强森 Dwayne Johnson
          凯文·哈特 Kevin Hart
          杰克·布莱克 Jack Black
          凯伦·吉兰 Karen Gillan
          尼克·乔纳斯 Nick Jonas
          瑞斯·达比 Rhys Darby
          鲍比·坎纳瓦尔 Bobby Cannavale
          亚历克斯·沃尔夫 Alex Wolff
          瑟达吕斯·布兰 Ser'Darius Blain
          麦迪森·伊瑟曼 Madison Iseman
          摩根·特纳 Morgan Turner
          梅森·古乔内 Mason Guccione
          马克·埃文·杰克逊 Marc Evan Jackson
          玛琳·辛科 Marin Hinkle
          特雷西·邦纳 Tracey Bonner
          玛莉贝丝·梦露 Maribeth Monroe
          米西·派勒 Missi Pyle
          杰米·雷内尔 Jamie Renell
          卡尔利斯·布克 Carlease Burke
          罗翰·昌德 Rohan Chand
          科林·汉克斯 Colin Hanks
    p2506362798.webp.jpg
    ◎简  介

      斯宾塞、“冰箱”弗里奇、贝瑟尼和玛莎是某高中的问题学生,这一日他们因不同的错误而被留校劳动。在一间堆满陈旧废弃物的储藏室内,斯宾塞发现一台年代久远的游戏机。四人原本想放松一下,谁知却被吸进了游戏机中。在凶险的尤曼吉热带丛林里,少男少女分别变成了勇石博士(道恩·强森 Dwayne Johnson 饰)、毛子·芬巴(凯文·哈特 Kevin Hart 饰)、奥伯伦教授(杰克·布莱克 Jack Black 饰)和铁拳露比(凯伦·吉兰 Karen Gillan 饰),他们必须遵照游戏规则,突破邪恶博士的阻挠,将宝石放回原处,恢复尤曼吉的和平,而这也是他们重返现实世界的唯一途径。
      毒蛇、猛兽以及纠缠不休的暴徒,为四个玩家带来了永生难忘的冒险体验……


    勇敢者游戏:决战丛林.3D出屏国配特效中字-正版国语.2017.1080p.3D.BluRay.x264.DTS.A.gif 勇敢者游戏:决战丛林.3D出屏国配特效中字-正版国语.2017.1080p.3D.BluRay.x264.DTS.A.gif 勇敢者游戏:决战丛林.3D出屏国配特效中字-正版国语.2017.1080p.3D.BluRay.x264.DTS.A.gif 勇敢者游戏:决战丛林.3D出屏国配特效中字-正版国语.2017.1080p.3D.BluRay.x264.DTS.A.gif

    勇敢者游戏:决战丛林.3D出屏国配特效中字-正版国语.2017.1080p.3D.BluRay.x264.DTS.A.jpg 勇敢者游戏:决战丛林.3D出屏国配特效中字-正版国语.2017.1080p.3D.BluRay.x264.DTS.A.jpg 勇敢者游戏:决战丛林.3D出屏国配特效中字-正版国语.2017.1080p.3D.BluRay.x264.DTS.A.jpg 勇敢者游戏:决战丛林.3D出屏国配特效中字-正版国语.2017.1080p.3D.BluRay.x264.DTS.A.jpg 勇敢者游戏:决战丛林.3D出屏国配特效中字-正版国语.2017.1080p.3D.BluRay.x264.DTS.A.jpg 勇敢者游戏:决战丛林.3D出屏国配特效中字-正版国语.2017.1080p.3D.BluRay.x264.DTS.A.jpg 勇敢者游戏:决战丛林.3D出屏国配特效中字-正版国语.2017.1080p.3D.BluRay.x264.DTS.A.jpg 勇敢者游戏:决战丛林.3D出屏国配特效中字-正版国语.2017.1080p.3D.BluRay.x264.DTS.A.jpg 勇敢者游戏:决战丛林.3D出屏国配特效中字-正版国语.2017.1080p.3D.BluRay.x264.DTS.A.jpg 勇敢者游戏:决战丛林.3D出屏国配特效中字-正版国语.2017.1080p.3D.BluRay.x264.DTS.A.jpg 勇敢者游戏:决战丛林.3D出屏国配特效中字-正版国语.2017.1080p.3D.BluRay.x264.DTS.A.jpg 勇敢者游戏:决战丛林.3D出屏国配特效中字-正版国语.2017.1080p.3D.BluRay.x264.DTS.A.jpg 勇敢者游戏:决战丛林.3D出屏国配特效中字-正版国语.2017.1080p.3D.BluRay.x264.DTS.A.jpg 勇敢者游戏:决战丛林.3D出屏国配特效中字-正版国语.2017.1080p.3D.BluRay.x264.DTS.A.jpg 勇敢者游戏:决战丛林.3D出屏国配特效中字-正版国语.2017.1080p.3D.BluRay.x264.DTS.A.jpg 勇敢者游戏:决战丛林.3D出屏国配特效中字-正版国语.2017.1080p.3D.BluRay.x264.DTS.A.jpg 勇敢者游戏:决战丛林.3D出屏国配特效中字-正版国语.2017.1080p.3D.BluRay.x264.DTS.A.jpg 勇敢者游戏:决战丛林.3D出屏国配特效中字-正版国语.2017.1080p.3D.BluRay.x264.DTS.A.jpg 勇敢者游戏:决战丛林.3D出屏国配特效中字-正版国语.2017.1080p.3D.BluRay.x264.DTS.A.jpg 勇敢者游戏:决战丛林.3D出屏国配特效中字-正版国语.2017.1080p.3D.BluRay.x264.DTS.A.jpg 勇敢者游戏:决战丛林.3D出屏国配特效中字-正版国语.2017.1080p.3D.BluRay.x264.DTS.A.jpg 勇敢者游戏:决战丛林.3D出屏国配特效中字-正版国语.2017.1080p.3D.BluRay.x264.DTS.A.jpg
    General
    Unique ID                                : 193252997530188691308698745226439857285 (0x91632C6917EA39DDA4B1651FECA29485)
    Complete name                            : 勇敢者游戏:决战丛林.3D出屏国配特效中字-次世代国语.2017.1080p.3D.BluRay.x264.DTS.AC3-飞影小曹.mkv
    Format                                   : Matroska
    Format version                           : Version 4 / Version 2
    File size                                : 15.4 GiB
    Duration                                 : 1 h 59 min
    Overall bit rate                         : 18.6 Mb/s
    Encoded date                             : UTC 2018-04-03 12:54:29
    Writing application                      : mkvmerge v8.8.0 ('Wind at my back') 32bit
    Writing library                          : libebml v1.3.3 + libmatroska v1.4.4 / Lavf52.84.0


    Video
    ID                                       : 1
    Format                                   : AVC
    Format/Info                              : Advanced Video Codec
    Format profile                           : High@L4.1
    Format settings, CABAC                   : Yes
    Format settings, ReFrames                : 5 frames
    Format settings, GOP                     : M=4, N=13
    Codec ID                                 : V_MPEG4/ISO/AVC
    Duration                                 : 1 h 59 min
    Bit rate                                 : 14.5 Mb/s
    Width                                    : 1 920 pixels
    Height                                   : 800 pixels
    Display aspect ratio                     : 2.40:1
    Frame rate mode                          : Constant
    Frame rate                               : 23.976 FPS
    Color space                              : YUV
    Chroma subsampling                       : 4:2:0
    Bit depth                                : 8 bits
    Scan type                                : Progressive
    Bits/(Pixel*Frame)                       : 0.394
    Stream size                              : 11.8 GiB (76%)
    Writing library                          : x264 core 110
    Encoding settings                        : cabac=1 / ref=5 / deblock=1:0:0 / analyse=0x3:0x133 / me=hex / subme=8 / psy=1 / psy_rd=1.00:0.00 / mixed_ref=1 / me_range=16 / chroma_me=0 / trellis=1 / 8x8dct=1 / cqm=0 / deadzone=21,11 / fast_pskip=1 / chroma_qp_offset=-2 / threads=2 / sliced_threads=0 / nr=0 / decimate=1 / interlaced=0 / constrained_intra=0 / bframes=3 / b_pyramid=0 / b_adapt=0 / b_bias=0 / direct=3 / weightb=1 / open_gop=0 / weightp=0 / keyint=13 / keyint_min=7 / scenecut=0 / intra_refresh=0 / rc_lookahead=13 / rc=abr / mbtree=1 / bitrate=14500 / ratetol=1.0 / qcomp=0.00 / qpmin=10 / qpmax=51 / qpstep=4 / ip_ratio=1.41 / aq=1:1.00
    Default                                  : Yes
    Forced                                   : No


    Audio #1
    ID                                       : 2
    Format                                   : DTS
    Format/Info                              : Digital Theater Systems
    Format profile                           : MA / Core
    Mode                                     : 16
    Format settings, Endianness              : Big
    Codec ID                                 : A_DTS
    Duration                                 : 1 h 59 min
    Bit rate mode                            : Variable / Constant
    Bit rate                                 : 2 250 kb/s / 1 509 kb/s
    Channel(s)                               : 6 channels
    Channel positions                        : Front: L C R, Side: L R, LFE
    Sampling rate                            : 48.0 kHz
    Frame rate                               : 93.750 FPS (512 spf)
    Bit depth                                : 16 bits
    Compression mode                         : Lossless / Lossy
    Stream size                              : 1.87 GiB (12%)
    Title                                    : 次世代国语音轨-重混
    Language                                 : Chinese
    Default                                  : No
    Forced                                   : No


    Audio #2
    ID                                       : 3
    Format                                   : AC-3
    Format/Info                              : Audio Coding 3
    Format settings, Endianness              : Big
    Codec ID                                 : A_AC3
    Duration                                 : 1 h 59 min
    Bit rate mode                            : Constant
    Bit rate                                 : 640 kb/s
    Channel(s)                               : 6 channels
    Channel positions                        : Front: L C R, Side: L R, LFE
    Sampling rate                            : 48.0 kHz
    Frame rate                               : 31.250 FPS (1536 spf)
    Bit depth                                : 16 bits
    Compression mode                         : Lossy
    Stream size                              : 545 MiB (3%)
    Title                                    : 重混公映国配DD5.1-640Kbps
    Language                                 : Chinese
    Service kind                             : Complete Main
    Default                                  : Yes
    Forced                                   : No


    Audio #3
    ID                                       : 4
    Format                                   : DTS
    Format/Info                              : Digital Theater Systems
    Mode                                     : 16
    Format settings, Endianness              : Big
    Codec ID                                 : A_DTS
    Duration                                 : 1 h 59 min
    Bit rate mode                            : Constant
    Bit rate                                 : 1 509 kb/s
    Channel(s)                               : 6 channels
    Channel positions                        : Front: L C R, Side: L R, LFE
    Sampling rate                            : 48.0 kHz
    Frame rate                               : 93.750 FPS (512 spf)
    Bit depth                                : 16 bits
    Compression mode                         : Lossy
    Stream size                              : 1.25 GiB (8%)
    Title                                    : DTS英语音轨
    Language                                 : English
    Default                                  : No
    Forced                                   : No

    禁止灌水..附有广告类信息回帖..复制他人回帖,发现多次或长期灌水者禁言1-N天,请社区某些伸手党及长期灌水人员珍惜ID!!!
    游客,如果您要查看本帖隐藏内容请回复

    将种子复制磁链后粘贴到百度云盘离线下载..
  • TA的每日心情
    开心
    昨天 06:52
  • 签到天数: 678 天

    [LV.9]以坛为家II

    发表于 2018-4-4 06:14:16 | 显示全部楼层
    出屏字幕看着舒服,3D效果一流,感谢制作!
    回复 支持 0 反对 1

    使用道具 举报

  • TA的每日心情
    难过
    昨天 02:17
  • 签到天数: 733 天

    [LV.9]以坛为家II

    发表于 2018-4-4 01:37:39 | 显示全部楼层
    本帖最后由 史哲哲 于 2018-4-4 01:39 编辑

    在次感谢大佬,辛苦辛苦,特效字幕不容易,希望去掉动图,费流量啊,又看的不过瘾

    评分

    参与人数 1飞币 +10 收起 理由
    13879384998 + 10 赞一个!

    查看全部评分

    回复 支持 反对

    使用道具 举报

  • TA的每日心情
    慵懒
    3 天前
  • 签到天数: 437 天

    [LV.9]以坛为家II

    发表于 2018-4-4 03:07:17 | 显示全部楼层
    提示: 作者被禁止或删除 内容自动屏蔽
    回复 支持 反对

    使用道具 举报

  • TA的每日心情
    开心
    昨天 06:48
  • 签到天数: 1145 天

    [LV.10]以坛为家III

    发表于 2018-4-4 03:40:03 | 显示全部楼层
    很兴奋,谢谢楼主分享,衷心感谢,
    回复 支持 反对

    使用道具 举报

  • TA的每日心情
    慵懒
    4 天前
  • 签到天数: 274 天

    [LV.8]以坛为家I

    发表于 2018-4-4 04:02:18 | 显示全部楼层
    很不错 好想要特效字幕
    回复 支持 反对

    使用道具 举报

  • TA的每日心情
    开心
    昨天 06:15
  • 签到天数: 376 天

    [LV.9]以坛为家II

    发表于 2018-4-4 04:26:34 | 显示全部楼层
    等到了’万分感谢楼主无私
    回复 支持 反对

    使用道具 举报

  • TA的每日心情
    开心
    昨天 05:16
  • 签到天数: 52 天

    [LV.5]常住居民I

    发表于 2018-4-4 05:11:34 | 显示全部楼层
    谢谢楼主分享,衷心感谢。
    回复 支持 反对

    使用道具 举报

  • TA的每日心情
    开心
    昨天 06:03
  • 签到天数: 1259 天

    [LV.10]以坛为家III

    发表于 2018-4-4 06:09:23 | 显示全部楼层
    太好了,好极了。
    回复 支持 反对

    使用道具 举报

  • TA的每日心情
    开心
    昨天 06:33
  • 签到天数: 618 天

    [LV.9]以坛为家II

    发表于 2018-4-4 06:13:10 | 显示全部楼层
    哈哈哈哈哈哈哈哈哈哈哈哈哈
    回复 支持 反对

    使用道具 举报

    您需要登录后才可以回帖 登录 | 立即注册

    本版积分规则

    本站资源均来自互联网,如果侵犯了您的权益请与我们联系,我们将在24小时内删除。

    QQ|申请友链|小黑屋|手机版|Archiver|站长工具|飞影3D论坛  

    GMT+8, 2018-4-24 01:14 , Processed in 0.157060 second(s), 30 queries .

    Powered by Discuz! X3.2

    © 2001-2013 Comsenz Inc.

    ICP备案:黔ICP备14003922号-4
    快速回复 返回顶部 返回列表