飞影3D论坛

 找回密码
 立即注册

QQ登录

只需一步,快速开始

扫一扫,访问微社区

3D超凡蜘蛛侠2(内置3D字幕版)(国英双语)
查看: 8328|回复: 887

[左右][3D收藏版【星球大战8:最后的绝地武士】出屏特效国配字幕-正版八一国语][1080P][MKV][17G][国英双语][BluRay.x264.AC3.DTS-飞影小曹]

  [复制链接]
  • TA的每日心情
    开心
    昨天 22:08
  • 签到天数: 1402 天

    [LV.10]以坛为家III

    发表于 2018-4-1 17:14:34 | 显示全部楼层 |阅读模式
    本帖最后由 13879384998 于 2018-4-8 12:26 编辑

    p2508823561.webp.jpg
    字幕蓝本取材之..国配字幕由国语视界 meimei838100 大神听录制作
    片头片尾及内容注释+演职人员名单国语视界 22171116 大神翻译
    衷感谢!

    亲测..该片立体效果5星级别,相比上一集立体效果好出八条街!

    默认DTS-英语原音+正版八一国语DD5.1-640-Kbps音轨

    做种不易,费时费力,请理性回帖勿灌水!
    aaa.jpg
    ◎译  名 星球大战8:最后的绝地武士/星球大战:最后绝地武士(港)/星球大战8/星战8
    ◎片  名 Star Wars: The Last Jedi
    ◎年  代 2017
    ◎产  地 美国
    ◎类  别 动作/科幻/冒险
    ◎语  言 国英双语
    ◎上映日期 2017-12-15(美国)/2018-01-05(中国大陆)
    ◎IMDb评分  7.4/10 from 341,933 users
    ◎豆瓣评分 7.2/10 from 72,023 users
    ◎片  长 152分钟
    ◎导  演 莱恩·约翰逊 Rian Johnson
    ◎主  演 马克·哈米尔 Mark Hamill
          凯丽·费雪 Carrie Fisher
          黛西·雷德利 Daisy Ridley
          亚当·德赖弗 Adam Driver
          约翰·博耶加 John Boyega
          奥斯卡·伊萨克 Oscar Isaac
          安迪·瑟金斯 Andy Serkis
          露皮塔·尼永奥 Lupita Nyong'o
          多姆纳尔·格里森 Domhnall Gleeson
          安东尼·丹尼尔斯 Anthony Daniels
          格温多兰·克里斯蒂 Gwendoline Christie
          凯莉·玛丽·陈 Kelly Marie Tran
          劳拉·邓恩 Laura Dern
          本尼西奥·德尔·托罗 Benicio Del Toro
          弗兰克·奥兹 Frank Oz
          比莉·洛德 Billie Lourd
          阿曼达·劳伦斯 Amanda Lawrence
          吉米·维 Jimmy Vee
          贾斯汀·塞洛克斯 Justin Theroux
          蒂姆·罗斯 Tim Rose
          汤姆·凯恩 Tom Kane
          亚德里安·埃德蒙松 Adrian Edmondson
          马克·路易斯·琼斯 Mark Lewis Jones
          赫敏·科菲尔德 Hermione Corfield
          吴青芸 Thanh Van Ngo
          诺阿·西甘 Noah Segan
          保罗·卡塞 Paul Kasey
          米凯拉·科尔 Michaela Coel
          普瑞扬咖·伯福德 Priyanga Burford
          纳温·乔杜里 Navin Chowdhry
          安德鲁·杰克 Andrew Jack
          克里斯塔·克拉克 Crystal Clarke
          伊川东吾 Togo Igawa
    p2508823554.webp.jpg
    ◎简  介

      《星球大战:最后的绝地武士》承接前作《星球大战:原力觉醒》的剧情,讲述第一军团全面侵袭之下,蕾伊(黛西·雷德利 Daisy Ridley 饰)、芬恩(约翰·博耶加 John Boyega 饰)、波·达默龙(奥斯卡·伊萨克 Oscar Isaac 饰)三位年轻主角各自的抉 择和冒险故事。前作中觉醒强大原力的蕾伊独自寻访隐居的绝地大师卢克·天行者(马克·哈米尔 Mark Hamill 饰),在后者的指导下接受原力训练。芬恩接受了一项几乎不可能完成的任务,为此他不得不勇闯敌营,面对自己的过去。波·达默龙则要适应从战士向领袖的角色转换,这一过程中他也将接受一些血的教训。

    ◎获奖情况

      第90届奥斯卡金像奖  (2018)
      最佳视觉效果(提名) 尼尔·斯坎伦 / 本·莫里斯 / 克里斯·考博德 / 迈克尔·马尔霍兰
      最佳混音(提名) 伦·克斯 / 斯图尔特·威尔逊 / 大卫·帕克 / 迈克尔·斯曼内科
      最佳音效剪辑(提名) 伦·克斯 / 马修·伍德
      最佳原创配乐(提名) 约翰·威廉姆斯

      第71届英国电影学院奖  (2018)
      电影奖 最佳特殊视觉效果(提名)
      电影奖 最佳音效(提名)

      第22届美国艺术指导工会奖  (2018)
      电影奖 最佳幻想电影艺术指导(提名)

      第16届美国视觉效果协会奖  (2018)
      最佳特效电影视觉效果(提名)
      最佳电影虚拟摄影(提名)
      最佳真人电影模拟动画效果(提名)

      第54届美国声音效果协会奖  (2018)
      真人电影最佳音效(提名)
    星球大战8-最后的绝地武士.3D出屏国配特效中字-正版国语.2017.1080p.3D.BluRay.x264.D.gif 星球大战8-最后的绝地武士.3D出屏国配特效中字-正版国语.2017.1080p.3D.BluRay.x264.D.gif 星球大战8-最后的绝地武士.3D出屏国配特效中字-正版国语.2017.1080p.3D.BluRay.x264.D.gif

    星球大战8-最后的绝地武士.3D出屏国配特效中字-正版国语.2017.1080p.3D.BluRay.x264.D.jpg 星球大战8-最后的绝地武士.3D出屏国配特效中字-正版国语.2017.1080p.3D.BluRay.x264.D.jpg 星球大战8-最后的绝地武士.3D出屏国配特效中字-正版国语.2017.1080p.3D.BluRay.x264.D.jpg 星球大战8-最后的绝地武士.3D出屏国配特效中字-正版国语.2017.1080p.3D.BluRay.x264.D.jpg 星球大战8-最后的绝地武士.3D出屏国配特效中字-正版国语.2017.1080p.3D.BluRay.x264.D.jpg 星球大战8-最后的绝地武士.3D出屏国配特效中字-正版国语.2017.1080p.3D.BluRay.x264.D.jpg 星球大战8-最后的绝地武士.3D出屏国配特效中字-正版国语.2017.1080p.3D.BluRay.x264.D.jpg 星球大战8-最后的绝地武士.3D出屏国配特效中字-正版国语.2017.1080p.3D.BluRay.x264.D.jpg 星球大战8-最后的绝地武士.3D出屏国配特效中字-正版国语.2017.1080p.3D.BluRay.x264.D.jpg 星球大战8-最后的绝地武士.3D出屏国配特效中字-正版国语.2017.1080p.3D.BluRay.x264.D.jpg 星球大战8-最后的绝地武士.3D出屏国配特效中字-正版国语.2017.1080p.3D.BluRay.x264.D.jpg 星球大战8-最后的绝地武士.3D出屏国配特效中字-正版国语.2017.1080p.3D.BluRay.x264.D.jpg 星球大战8-最后的绝地武士.3D出屏国配特效中字-正版国语.2017.1080p.3D.BluRay.x264.D.jpg 星球大战8-最后的绝地武士.3D出屏国配特效中字-正版国语.2017.1080p.3D.BluRay.x264.D.jpg 星球大战8-最后的绝地武士.3D出屏国配特效中字-正版国语.2017.1080p.3D.BluRay.x264.D.jpg 星球大战8-最后的绝地武士.3D出屏国配特效中字-正版国语.2017.1080p.3D.BluRay.x264.D.jpg

    General
    Unique ID                                
    :\星球大战8-最后的绝地武士.3D出屏国配特效中字-正版国语.2017.1080p.3D.BluRay.x264.DTS.AC3-飞影小曹.mkv
    Format                                   : Matroska
    Format version                           : Version 4 / Version 2
    File size                                : 17.2 GiB
    Duration                                 : 2 h 31 min
    Overall bit rate                         : 16.2 Mb/s
    Encoded date                             : UTC 2018-04-01 07:04:21
    Writing application                      : mkvmerge v8.8.0 ('Wind at my back') 32bit
    Writing library                          : libebml v1.3.3 + libmatroska v1.4.4 / Lavf52.84.0

    Video
    ID                                       : 1
    Format                                   : AVC
    Format/Info                              : Advanced Video Codec
    Format profile                           : High@L4.1
    Format settings                          : CABAC / 5 Ref Frames
    Format settings, CABAC                   : Yes
    Format settings, ReFrames                : 5 frames
    Format settings, GOP                     : M=4, N=13
    Codec ID                                 : V_MPEG4/ISO/AVC
    Duration                                 : 2 h 31 min
    Bit rate                                 : 14.0 Mb/s
    Width                                    : 1 920 pixels
    Height                                   : 800 pixels
    Display aspect ratio                     : 2.40:1
    Frame rate mode                          : Constant
    Frame rate                               : 23.976 FPS
    Color space                              : YUV
    Chroma subsampling                       : 4:2:0
    Bit depth                                : 8 bits
    Scan type                                : Progressive
    Bits/(Pixel*Frame)                       : 0.380
    Stream size                              : 14.9 GiB (87%)
    Title                                    : 星球大战8-最后的绝地武士.3D出屏国配特效中字-正版国语.2017.1080p.3D.BluRay.x264.DTS.AC3-飞影小曹
    Writing library                          : x264 core 110
    Encoding settings                        : cabac=1 / ref=5 / deblock=1:0:0 / analyse=0x3:0x133 / me=hex / subme=8 / psy=1 / psy_rd=1.00:0.00 / mixed_ref=1 / me_range=16 / chroma_me=0 / trellis=1 / 8x8dct=1 / cqm=0 / deadzone=21,11 / fast_pskip=1 / chroma_qp_offset=-2 / threads=2 / sliced_threads=0 / nr=0 / decimate=1 / interlaced=0 / constrained_intra=0 / bframes=3 / b_pyramid=0 / b_adapt=0 / b_bias=0 / direct=3 / weightb=1 / open_gop=0 / weightp=0 / keyint=13 / keyint_min=7 / scenecut=0 / intra_refresh=0 / rc_lookahead=13 / rc=abr / mbtree=1 / bitrate=14000 / ratetol=1.0 / qcomp=0.00 / qpmin=10 / qpmax=51 / qpstep=4 / ip_ratio=1.41 / aq=1:1.00
    Default                                  : Yes
    Forced                                   : No

    Audio #1
    ID                                       : 2
    Format                                   : DTS
    Format/Info                              : Digital Theater Systems
    Codec ID                                 : A_DTS
    Duration                                 : 2 h 31 min
    Bit rate mode                            : Constant
    Bit rate                                 : 1 509 kb/s
    Channel(s)                               : 6 channels
    Channel positions                        : Front: L C R, Side: L R, LFE
    Sampling rate                            : 48.0 kHz
    Frame rate                               : 93.750 FPS (512 SPF)
    Bit depth                                : 24 bits
    Compression mode                         : Lossy
    Stream size                              : 1.60 GiB (9%)
    Title                                    : DTS英语原音
    Language                                 : English
    Default                                  : No
    Forced                                   : No

    Audio #2
    ID                                       : 3
    Format                                   : AC-3
    Format/Info                              : Audio Coding 3
    Codec ID                                 : A_AC3
    Duration                                 : 2 h 31 min
    Bit rate mode                            : Constant
    Bit rate                                 : 640 kb/s
    Channel(s)                               : 6 channels
    Channel positions                        : Front: L C R, Side: L R, LFE
    Sampling rate                            : 48.0 kHz
    Frame rate                               : 31.250 FPS (1536 SPF)
    Bit depth                                : 16 bits
    Compression mode                         : Lossy
    Stream size                              : 695 MiB (4%)
    Title                                    : 正版八一国语音轨
    Language                                 : Chinese
    Service kind                             : Complete Main
    Default                                  : No
    Forced                                   : No
    禁止灌水..附有广告类信息回帖..复制他人回帖,发现多次或长期灌水者禁言1-N天,请社区某些伸手党及喜欢灌水人员珍惜ID!!!

    游客,如果您要查看本帖隐藏内容请回复

    该用户从未签到

    发表于 2018-4-1 17:47:50 | 显示全部楼层
    回复 支持 1 反对 0

    使用道具 举报

    该用户从未签到

    发表于 2018-4-1 17:24:12 | 显示全部楼层
    回复 支持 反对

    使用道具 举报

  • TA的每日心情
    开心
    昨天 09:05
  • 签到天数: 956 天

    [LV.10]以坛为家III

    发表于 2018-4-1 17:24:33 | 显示全部楼层
    非常感谢提供

    评分

    参与人数 1飞币 -50 收起 理由
    13879384998 -50 长期回帖灌水.劝告一次,发现下次禁言1-N天.

    查看全部评分

    回复 支持 反对

    使用道具 举报

  • TA的每日心情
    开心
    前天 21:45
  • 签到天数: 471 天

    [LV.9]以坛为家II

    发表于 2018-4-1 17:26:52 | 显示全部楼层

    我绝对支持您,今日强帖

    评分

    参与人数 1飞币 -50 收起 理由
    13879384998 -50 复制他人回帖灌水.劝告一次,发现下次禁言1.

    查看全部评分

    回复 支持 反对

    使用道具 举报

  • TA的每日心情
    慵懒
    7 天前
  • 签到天数: 87 天

    [LV.6]常住居民II

    发表于 2018-4-1 17:31:50 | 显示全部楼层
    这个好看吗???

    评分

    参与人数 1飞币 -5 收起 理由
    13879384998 -5 无意义回帖

    查看全部评分

    回复 支持 反对

    使用道具 举报

    该用户从未签到

    发表于 2018-4-1 17:38:17 | 显示全部楼层
    回复 支持 反对

    使用道具 举报

  • TA的每日心情
    慵懒
    半小时前
  • 签到天数: 626 天

    [LV.9]以坛为家II

    发表于 2018-4-1 17:45:24 | 显示全部楼层
    谢谢版主分享,等了好几天了,版主辛苦了

    评分

    参与人数 1飞币 +40 收起 理由
    13879384998 + 40 理性回帖 赞一个!

    查看全部评分

    回复 支持 反对

    使用道具 举报

  • TA的每日心情
    开心
    昨天 17:55
  • 签到天数: 1538 天

    [LV.Master]伴坛终老

    发表于 2018-4-1 17:47:31 | 显示全部楼层
    谢谢辛苦制作付出!
    回复 支持 反对

    使用道具 举报

    您需要登录后才可以回帖 登录 | 立即注册

    本版积分规则

    本站资源均来自互联网,如果侵犯了您的权益请与我们联系,我们将在24小时内删除。

    QQ|申请友链|小黑屋|手机版|Archiver|站长工具|飞影3D论坛  

    GMT+8, 2018-12-15 09:44 , Processed in 0.122764 second(s), 29 queries .

    Powered by Discuz! X3.2

    © 2001-2013 Comsenz Inc.

    ICP备案:黔ICP备14003922号-4
    快速回复 返回顶部 返回列表