飞影3D论坛

 找回密码
 立即注册

QQ登录

只需一步,快速开始

扫一扫,访问微社区

3D超凡蜘蛛侠2(内置3D字幕版)(国英双语)
查看: 1824|回复: 427

[左右][3D收藏版【正义联盟】3D出屏国配特效字幕-正版长译国语 ][1080P][MKV][14G][国英双语][2017.1080p.BluRay.x264.AC3.DTS-飞影小曹]

  [复制链接]
  • TA的每日心情
    开心
    昨天 15:58
  • 签到天数: 1231 天

    [LV.10]以坛为家III

    发表于 2018-3-18 18:43:48 | 显示全部楼层 |阅读模式
    本帖最后由 13879384998 于 2018-3-24 12:57 编辑

    p2504391334.webp.jpg
    慢工出细活,精品资源不怕晚...
    国配字幕由国语视界古早人听译制作  感谢!
    特效+注释+演职人员名单根据【iTunes官方译本】由本人制作而成

    此片超一流立体效果,高参数压制 全屏优良画质!

    默认正版DD5.1-448Kbps长译国语+DTS-英语原音

    做种不易,费时费力,请理性回帖勿灌水!
    aaa.jpg
    ◎译  名 正义联盟/Justice League Mortal/Justice League of America/The Justice League Part One
    ◎片  名 Justice League
    ◎年  代 2017
    ◎产  地 美国
    ◎类  别 动作/科幻/奇幻/冒险
    ◎语  言 英语/冰岛语/俄语
    ◎上映日期 2017-11-17(美国/中国大陆)
    ◎IMDb评分  6.8/10 from 203,240 users
    ◎豆瓣评分 6.7/10 from 136,136 users
    ◎帖子整理 http://www.btbtt.co 
    ◎片  长 120分钟
    ◎导  演 扎克·施奈德 Zack Snyder
    ◎编  剧 扎克·施奈德 Zack Snyder / 克里斯·特里奥 Chris Terrio / 乔斯·韦登 Joss Whedon / 比尔·芬格 Bill Finger / 鲍勃·凯恩 Bob Kane / 乔·舒斯特 Joe Shuster / 杰里·西格尔 Jerry Siegel / 威廉·马斯顿 William M. Marston
    ◎主  演 本·阿弗莱克 Ben Affleck
           亨利·卡维尔 Henry Cavill
           盖尔·加朵 Gal Gadot
           埃兹拉·米勒 Ezra Miller
           杰森·莫玛 Jason Momoa
           雷·费舍尔 Ray Fisher
           杰瑞米·艾恩斯 Jeremy Irons
           艾米·亚当斯 Amy Adams
           戴安·琳恩 Diane Lane
           康妮·尼尔森 Connie Nielsen
           J·K·西蒙斯 J.K. Simmons
           塞伦·希德 Ciarán Hinds
           艾梅柏·希尔德 Amber Heard
           乔·莫顿 Joe Morton
           丽莎·洛文·孔斯利 Lisa Loven Kongsli
           大卫·休里斯 David Thewlis
           迈克尔·麦克埃尔哈顿 Michael McElhatton
           理查德·克里弗特 Richard Clifford
           Ingvar Eggert Sigurðsson
           比利·克鲁德普 Billy Crudup
           赛吉·康斯坦斯 Sergi Constance
           乔·曼根尼罗 Joe Manganiello
           杰西·艾森伯格 Jesse Eisenberg

    ◎标  签 DC | 超级英雄 | 美国 | 科幻 | 漫画改编 | 2017 | 动作 | DCEU
    p2500477007.webp.jpg
    ◎简  介

      受到超人无私奉献的影响,蝙蝠侠重燃了对人类的信心,接受了新盟友——神奇女侠(戴安娜·普林斯)的帮助,去对抗更加强大的敌人。蝙蝠侠和神奇女侠一同寻找并招募了一支超人类联盟来抵挡新觉醒的威胁。但尽管这支队伍集结了超人、蝙蝠侠、神奇女侠、闪电侠、海王和钢骨等人,他们似乎无法阻止敌人对地球的进攻……
    正义联盟.3D出屏国配特效字幕-正版长译国语2017.1080p.BluRay.x264.AC3.DTS-飞影小曹 .gif 正义联盟.3D出屏国配特效字幕-正版长译国语2017.1080p.BluRay.x264.AC3.DTS-飞影小曹 .gif 正义联盟.3D出屏国配特效字幕-正版长译国语2017.1080p.BluRay.x264.AC3.DTS-飞影小曹 .gif 正义联盟.3D出屏国配特效字幕-正版长译国语2017.1080p.BluRay.x264.AC3.DTS-飞影小曹 .gif 正义联盟.3D出屏国配特效字幕-正版长译国语2017.1080p.BluRay.x264.AC3.DTS-飞影小曹 .gif 正义联盟.3D出屏国配特效字幕-正版长译国语2017.1080p.BluRay.x264.AC3.DTS-飞影小曹 .gif 正义联盟.3D出屏国配特效字幕-正版长译国语2017.1080p.BluRay.x264.AC3.DTS-飞影小曹 .gif


    正义联盟.3D出屏国配特效字幕-正版长译国语2017.1080p.BluRay.x264.AC3.DTS-飞影小曹 .jpg 正义联盟.3D出屏国配特效字幕-正版长译国语2017.1080p.BluRay.x264.AC3.DTS-飞影小曹 .jpg 正义联盟.3D出屏国配特效字幕-正版长译国语2017.1080p.BluRay.x264.AC3.DTS-飞影小曹 .jpg 正义联盟.3D出屏国配特效字幕-正版长译国语2017.1080p.BluRay.x264.AC3.DTS-飞影小曹 .jpg 正义联盟.3D出屏国配特效字幕-正版长译国语2017.1080p.BluRay.x264.AC3.DTS-飞影小曹 .jpg 正义联盟.3D出屏国配特效字幕-正版长译国语2017.1080p.BluRay.x264.AC3.DTS-飞影小曹 .jpg 正义联盟.3D出屏国配特效字幕-正版长译国语2017.1080p.BluRay.x264.AC3.DTS-飞影小曹 .jpg 正义联盟.3D出屏国配特效字幕-正版长译国语2017.1080p.BluRay.x264.AC3.DTS-飞影小曹 .jpg 正义联盟.3D出屏国配特效字幕-正版长译国语2017.1080p.BluRay.x264.AC3.DTS-飞影小曹 .jpg 正义联盟.3D出屏国配特效字幕-正版长译国语2017.1080p.BluRay.x264.AC3.DTS-飞影小曹 .jpg 正义联盟.3D出屏国配特效字幕-正版长译国语2017.1080p.BluRay.x264.AC3.DTS-飞影小曹 .jpg 正义联盟.3D出屏国配特效字幕-正版长译国语2017.1080p.BluRay.x264.AC3.DTS-飞影小曹 .jpg 正义联盟.3D出屏国配特效字幕-正版长译国语2017.1080p.BluRay.x264.AC3.DTS-飞影小曹 .jpg 正义联盟.3D出屏国配特效字幕-正版长译国语2017.1080p.BluRay.x264.AC3.DTS-飞影小曹 .jpg 正义联盟.3D出屏国配特效字幕-正版长译国语2017.1080p.BluRay.x264.AC3.DTS-飞影小曹 .jpg 正义联盟.3D出屏国配特效字幕-正版长译国语2017.1080p.BluRay.x264.AC3.DTS-飞影小曹 .jpg 正义联盟.3D出屏国配特效字幕-正版长译国语2017.1080p.BluRay.x264.AC3.DTS-飞影小曹 .jpg 正义联盟.3D出屏国配特效字幕-正版长译国语2017.1080p.BluRay.x264.AC3.DTS-飞影小曹 .jpg 正义联盟.3D出屏国配特效字幕-正版长译国语2017.1080p.BluRay.x264.AC3.DTS-飞影小曹 .jpg 正义联盟.3D出屏国配特效字幕-正版长译国语2017.1080p.BluRay.x264.AC3.DTS-飞影小曹 .jpg 正义联盟.3D出屏国配特效字幕-正版长译国语2017.1080p.BluRay.x264.AC3.DTS-飞影小曹 .jpg 正义联盟.3D出屏国配特效字幕-正版长译国语2017.1080p.BluRay.x264.AC3.DTS-飞影小曹 .jpg 正义联盟.3D出屏国配特效字幕-正版长译国语2017.1080p.BluRay.x264.AC3.DTS-飞影小曹 .jpg

    95GeneralUnique ID                                : 230872758778683295603162900560813782439 (0xADB079D7B246A55F952242805AF075A7)
    Complete name                            : Z义LM.3D出屏国配特效字幕-Z版长译国语2017.1080p.BluRay.x264.AC3.DTS-飞影小曹.mkv
    Format                                   : Matroska
    Format version                           : Version 4 / Version 2
    File size                                : 14.1 GiB
    Duration                                 : 2 h 0 min
    Overall bit rate                         : 16.8 Mb/s
    Encoded date                             : UTC 2018-03-18 07:20:13
    Writing application                      : mkvmerge v8.8.0 ('Wind at my back') 32bit
    Writing library                          : libebml v1.3.3 + libmatroska v1.4.4 / Lavf52.84.0

    Video
    ID                                       : 1
    Format                                   : AVC
    Format/Info                              : Advanced Video Codec
    Format profile                           : High@L5
    Format settings, CABAC                   : Yes
    Format settings, ReFrames                : 5 frames
    Format settings, GOP                     : M=4, N=13
    Codec ID                                 : V_MPEG4/ISO/AVC
    Duration                                 : 2 h 0 min
    Bit rate                                 : 14.8 Mb/s
    Width                                    : 1 920 pixels
    Height                                   : 1 080 pixels
    Display aspect ratio                     : 16:9
    Frame rate mode                          : Constant
    Frame rate                               : 23.976 FPS
    Color space                              : YUV
    Chroma subsampling                       : 4:2:0
    Bit depth                                : 8 bits
    Scan type                                : Progressive
    Bits/(Pixel*Frame)                       : 0.298
    Stream size                              : 12.4 GiB (88%)
    Writing library                          : x264 core 110
    Encoding settings                        : cabac=1 / ref=5 / deblock=1:0:0 / analyse=0x3:0x133 / me=hex / subme=8 / psy=1 / psy_rd=1.00:0.00 / mixed_ref=1 / me_range=16 / chroma_me=0 / trellis=1 / 8x8dct=1 / cqm=0 / deadzone=21,11 / fast_pskip=1 / chroma_qp_offset=-2 / threads=2 / sliced_threads=0 / nr=0 / decimate=1 / interlaced=0 / constrained_intra=0 / bframes=3 / b_pyramid=0 / b_adapt=0 / b_bias=0 / direct=3 / weightb=1 / open_gop=0 / weightp=0 / keyint=13 / keyint_min=7 / scenecut=0 / intra_refresh=0 / rc_lookahead=13 / rc=abr / mbtree=1 / bitrate=14800 / ratetol=1.0 / qcomp=0.00 / qpmin=10 / qpmax=51 / qpstep=4 / ip_ratio=1.41 / aq=1:1.00
    Default                                  : Yes
    Forced                                   : No

    Audio #1
    ID                                       : 2
    Format                                   : AC-3
    Format/Info                              : Audio Coding 3
    Format settings, Endianness              : Big
    Codec ID                                 : A_AC3
    Duration                                 : 2 h 0 min
    Bit rate mode                            : Constant
    Bit rate                                 : 448 kb/s
    Channel(s)                               : 6 channels
    Channel positions                        : Front: L C R, Side: L R, LFE
    Sampling rate                            : 48.0 kHz
    Frame rate                               : 31.250 FPS (1536 spf)
    Bit depth                                : 16 bits
    Compression mode                         : Lossy
    Stream size                              : 385 MiB (3%)
    Title                                    : 正版长译国语
    Language                                 : Chinese
    Service kind                             : Complete Main
    Default                                  : No
    Forced                                   : No

    Audio #2
    ID                                       : 3
    Format                                   : DTS
    Format/Info                              : Digital Theater Systems
    Mode                                     : 16
    Format settings, Endianness              : Big
    Codec ID                                 : A_DTS
    Duration                                 : 2 h 0 min
    Bit rate mode                            : Constant
    Bit rate                                 : 1 509 kb/s
    Channel(s)                               : 6 channels
    Channel positions                        : Front: L C R, Side: L R, LFE
    Sampling rate                            : 48.0 kHz
    Frame rate                               : 93.750 FPS (512 spf)
    Bit depth                                : 24 bits
    Compression mode                         : Lossy
    Stream size                              : 1.27 GiB (9%)
    Title                                    : DTS英语音轨
    Language                                 : English
    Default                                  : No
    Forced                                   : No

    将种子复制磁链后可在百度盘离线下载..
    游客,如果您要查看本帖隐藏内容请回复
  • TA的每日心情
    奋斗
    昨天 15:06
  • 签到天数: 96 天

    [LV.6]常住居民II

    发表于 2018-3-18 19:35:35 | 显示全部楼层
    很棒,谢谢楼主
    回复 支持 0 反对 1

    使用道具 举报

  • TA的每日心情
    慵懒
    2018-4-5 20:04
  • 签到天数: 119 天

    [LV.6]常住居民II

    发表于 2018-3-18 19:35:00 | 显示全部楼层
    谢谢楼主分享!
    回复 支持 0 反对 1

    使用道具 举报

  • TA的每日心情
    奋斗
    昨天 07:12
  • 签到天数: 374 天

    [LV.9]以坛为家II

    发表于 2018-3-18 19:01:43 | 显示全部楼层
    很棒,谢谢楼主的杰作
    回复 支持 反对

    使用道具 举报

    该用户从未签到

    发表于 2018-3-18 19:03:56 | 显示全部楼层

    直面挫折_直面挫折作文800字_小学生作文
    种树作文200字_一年级作文
    我们就这样想念_爱情散文_小故事网
    竞选作文400字_六年级作文
    我们离自己的梦想还有多远?_柔情日记_小故事网
    菜箱全家福作文100字_小学作文
    丰富多彩的课间生活作文400字_小学作文
    种菜作文100字_小学作文
    故乡的变化作文500字_小学作文
    今天我真高兴_今天我真高兴作文300字_小学生作文
    行动_行动作文100字_小学生作文













    活雷锋作文300字_三年级作文
    海滨浴场作文200字_三年级作文
    现实版三十六计之瞒天过海_现实版三十六计之瞒天过海作文600字_小学生作文
    学英语作文300字_小学作文
    拖地作文100字_小学作文
    我的遭遇作文300字_二年级作文
    猪仔头的温暖之旅作文300字_小学作文
    帮妈妈按摩作文200字_二年级作文
    军训作文1000字_五年级作文
    秋天作文300字_三年级作文
    回复 支持 反对

    使用道具 举报

  • TA的每日心情
    无聊
    2018-4-3 19:14
  • 签到天数: 4 天

    [LV.2]偶尔看看I

    发表于 2018-3-18 19:10:57 | 显示全部楼层
    据说出屏效果一流,下载下来试试。
    回复 支持 反对

    使用道具 举报

  • TA的每日心情
    无聊
    昨天 08:48
  • 签到天数: 270 天

    [LV.8]以坛为家I

    发表于 2018-3-18 19:22:31 | 显示全部楼层
    谢谢楼主了!!
    回复 支持 反对

    使用道具 举报

  • TA的每日心情
    开心
    6 天前
  • 签到天数: 444 天

    [LV.9]以坛为家II

    发表于 2018-3-18 19:23:47 | 显示全部楼层
    好东西 谢谢分享
    回复 支持 反对

    使用道具 举报

  • TA的每日心情
    奋斗
    昨天 12:34
  • 签到天数: 154 天

    [LV.7]常住居民III

    发表于 2018-3-18 19:27:15 | 显示全部楼层
    我要下载测试一下
    回复 支持 反对

    使用道具 举报

  • TA的每日心情
    开心
    昨天 18:29
  • 签到天数: 152 天

    [LV.7]常住居民III

    发表于 2018-3-18 19:31:41 | 显示全部楼层
    谢谢楼主的杰作
    回复 支持 反对

    使用道具 举报

    您需要登录后才可以回帖 登录 | 立即注册

    本版积分规则

    本站资源均来自互联网,如果侵犯了您的权益请与我们联系,我们将在24小时内删除。

    QQ|申请友链|小黑屋|手机版|Archiver|站长工具|飞影3D论坛  

    GMT+8, 2018-4-24 01:23 , Processed in 0.212738 second(s), 29 queries .

    Powered by Discuz! X3.2

    © 2001-2013 Comsenz Inc.

    ICP备案:黔ICP备14003922号-4
    快速回复 返回顶部 返回列表