飞影3D论坛

 找回密码
 立即注册

QQ登录

只需一步,快速开始

扫一扫,访问微社区

3D超凡蜘蛛侠2(内置3D字幕版)(国英双语)
查看: 1166|回复: 237

[科幻【 正义联盟 】[亚马逊高码流版本1080P]完美中文字幕 Justice.League.2017.1080p.AMZN.WEBRip.DDP5.1.x264-NTG 9.82GB]

  [复制链接]
  • TA的每日心情
    慵懒
    2 小时前
  • 签到天数: 485 天

    [LV.9]以坛为家II

    发表于 2018-2-13 17:47:40 | 显示全部楼层 |阅读模式
    本帖最后由 天涯的风 于 2018-2-14 20:37 编辑

    063122gz09tzqnzrfrz9ig.jpg
    ◎译  名 正义联盟/TheJusticeLeaguePartOne
    ◎片  名 Justice League
    ◎年  代 2017
    ◎产  地 美国
    ◎类  别 动作/科幻/奇幻/冒险
    ◎语  言 英语/冰岛语/俄语
    ◎上映日期 2017-11-17(美国)/2017-11-17(中国大陆)
    ◎豆瓣评分 6.6/10 from 127,909 users
    ◎豆瓣链接 https://movie.douban.com/subject/2158490/
    ◎片  长 120分钟
    ◎导  演 扎克·施奈德 Zack Snyder
    ◎主  演 本·阿弗莱克 Ben Affleck
          亨利·卡维尔 Henry Cavill
          盖尔·加朵 Gal Gadot
          埃兹拉·米勒 Ezra Miller
          杰森·莫玛 Jason Momoa
          雷·费舍尔 Ray Fisher
          杰瑞米·艾恩斯 Jeremy Irons
          艾米·亚当斯 Amy Adams
          戴安·琳恩 Diane Lane
          康妮·尼尔森 Connie Nielsen
          J·K·西蒙斯 J.K. Simmons
          塞伦·希德 Ciarán Hinds
          艾梅柏·希尔德 Amber Heard
          乔·莫顿 Joe Morton
          丽莎·洛文·孔斯利 Lisa Loven Kongsli
          大卫·休里斯 David Thewlis
          迈克尔·麦克埃尔哈顿 Michael McElhatton
          理查德·克里弗特 Richard Clifford
          Ingvar Eggert Siguresson
          比利·克鲁德普 Billy Crudup
          赛吉·康斯坦斯 Sergi Constance
          乔·曼根尼罗 Joe Manganiello
          杰西·艾森伯格 Jesse Eisenberg

    ◎简  介

      受到超人无私奉献的影响,蝙蝠侠重燃了对人类的信心,接受了新盟友——神奇女侠(戴安娜·普林斯)的帮助,去对抗更加强大的敌人。蝙蝠侠和神奇女侠一同寻找并招募了一支超人类联盟来抵挡新觉醒的威胁。但尽管这支队伍集结了超人、蝙蝠侠、神奇女侠、闪电侠、海王和钢骨等人,他们似乎无法阻止敌人对地球的进攻……
    Video
    ID                                       : 1
    Format                                   : AVC
    Format/Info                              : Advanced Video Codec
    Format profile                           : High@L4
    Format settings                          : CABAC / 4 Ref Frames
    Format settings, CABAC                   : Yes
    Format settings, ReFrames                : 4 frames
    Codec ID                                 : V_MPEG4/ISO/AVC
    Duration                                 : 1 h 59 min
    Bit rate mode                            : Variable
    Bit rate                                 : 11.1 Mb/s
    Maximum bit rate                         : 15.0 Mb/s
    Width                                    : 1 920 pixels
    Height                                   : 1 080 pixels
    Display aspect ratio                     : 16:9
    Frame rate mode                          : Constant
    Frame rate                               : 23.976 (24000/1001) FPS
    Color space                              : YUV
    Chroma subsampling                       : 4:2:0
    Bit depth                                : 8 bits
    Scan type                                : Progressive
    Bits/(Pixel*Frame)                       : 0.223
    Stream size                              : 9.28 GiB (95%)
    Default                                  : Yes
    Forced                                   : No
    Color range                              : Limited
    Color primaries                          : BT.709
    Transfer characteristics                 : BT.709
    Matrix coefficients                      : BT.709

    Audio
    ID                                       : 2
    Format                                   : E-AC-3
    Format/Info                              : Enhanced Audio Coding 3
    Codec ID                                 : A_EAC3
    Duration                                 : 1 h 59 min
    Bit rate mode                            : Constant
    Bit rate                                 : 640 kb/s
    Channel(s)                               : 6 channels
    Channel positions                        : Front: L C R, Side: L R, LFE
    Sampling rate                            : 48.0 kHz
    Frame rate                               : 187.500 FPS (256 SPF)
    Compression mode                         : Lossy
    Stream size                              : 549 MiB (5%)
    Language                                 : English
    Service kind                             : Complete Main
    Default                                  : Yes
    Forced                                   : No

    Text #1
    ID                                       : 3
    Format                                   : UTF-8
    Codec ID                                 : S_TEXT/UTF8
    Codec ID/Info                            : UTF-8 Plain Text
    Duration                                 : 1 h 58 min
    Bit rate                                 : 42 b/s
    Count of elements                        : 1235
    Stream size                              : 36.6 KiB (0%)
    Language                                 : English
    Default                                  : No
    Forced                                   : No

    Text #2
    ID                                       : 4
    Format                                   : UTF-8
    Codec ID                                 : S_TEXT/UTF8
    Codec ID/Info                            : UTF-8 Plain Text
    Duration                                 : 1 h 58 min
    Bit rate                                 : 47 b/s
    Count of elements                        : 1490
    Stream size                              : 41.0 KiB (0%)
    Title                                    : SDH
    Language                                 : English
    Default                                  : No
    Forced                                   : No

    重新制作的中文字幕,完美匹配亚马逊高码流版本1080P

    游客,如果您要查看本帖隐藏内容请回复





  • TA的每日心情
    开心
    昨天 11:35
  • 签到天数: 269 天

    [LV.8]以坛为家I

    发表于 2018-2-13 17:52:38 | 显示全部楼层

    感激涕零,谢谢楼主的好贴
    回复 支持 反对

    使用道具 举报

  • TA的每日心情
    慵懒
    5 天前
  • 签到天数: 418 天

    [LV.9]以坛为家II

    发表于 2018-2-13 17:53:29 | 显示全部楼层
    多谢楼主分享
    回复 支持 反对

    使用道具 举报

  • TA的每日心情
    开心
    昨天 10:03
  • 签到天数: 253 天

    [LV.8]以坛为家I

    发表于 2018-2-13 18:05:07 | 显示全部楼层
    感激涕零,谢谢楼主的好贴
    回复 支持 反对

    使用道具 举报

  • TA的每日心情
    奋斗
    昨天 09:52
  • 签到天数: 472 天

    [LV.9]以坛为家II

    发表于 2018-2-13 18:18:50 | 显示全部楼层
    多谢楼主的精彩分享!!!
    回复 支持 反对

    使用道具 举报

  • TA的每日心情
    开心
    前天 12:01
  • 签到天数: 53 天

    [LV.5]常住居民I

    发表于 2018-2-13 18:19:25 | 显示全部楼层
    谢谢楼主的好贴
    回复 支持 反对

    使用道具 举报

  • TA的每日心情
    开心
    昨天 00:02
  • 签到天数: 230 天

    [LV.7]常住居民III

    发表于 2018-2-13 18:21:02 | 显示全部楼层
    谢谢楼主分享啊
    回复 支持 反对

    使用道具 举报

  • TA的每日心情
    无聊
    昨天 16:52
  • 签到天数: 282 天

    [LV.8]以坛为家I

    发表于 2018-2-13 18:23:54 | 显示全部楼层
    感谢楼主分享
    回复 支持 反对

    使用道具 举报

    您需要登录后才可以回帖 登录 | 立即注册

    本版积分规则

    本站资源均来自互联网,如果侵犯了您的权益请与我们联系,我们将在24小时内删除。

    QQ|申请友链|小黑屋|手机版|Archiver|站长工具|飞影3D论坛  

    GMT+8, 2018-2-22 03:26 , Processed in 0.127808 second(s), 28 queries .

    Powered by Discuz! X3.2

    © 2001-2013 Comsenz Inc.

    ICP备案:黔ICP备14003922号-4
    快速回复 返回顶部 返回列表