飞影3D论坛

 找回密码
 立即注册

QQ登录

只需一步,快速开始

扫一扫,访问微社区

3D超凡蜘蛛侠2(内置3D字幕版)(国英双语)
查看: 2108|回复: 524

[左右][3D收藏版【银翼杀手2049】3D出屏特效字幕-5.1长译国语][1080P][MKV][16.78G][国英双语][BluRay.x264.AC3.DTS-飞影小曹]

  [复制链接]
  • TA的每日心情
    开心
    昨天 02:02
  • 签到天数: 1174 天

    [LV.10]以坛为家III

    发表于 2018-1-16 22:18:27 | 显示全部楼层 |阅读模式
    本帖最后由 13879384998 于 2018-1-16 23:40 编辑

    p2501923066.webp.jpg
    全片全程特效注释+尾演职人员名单注释,全网独一无二完美版收藏本!

    此片超一流立体效果,高参数压制 全屏优良画质!

    默认DD5.1-640-Kbps长译国语+长译国语DD5.1-448-Kbps+DTS-英语原音
    做种不易,费时费力,请理性回帖勿灌水!
    aaa.jpg
    ◎译  名 银翼杀手2049/银翼杀手2
    ◎片  名 Blade Runner 2049
    ◎年  代 2017
    ◎产  地 美国/加拿大/英国
    ◎类  别 剧情/科幻/惊悚
    ◎语  言 DTS英语/5.1国语
    ◎字      幕   3D出屏特效字幕
    ◎上映日期 2017-10-06(美国)/2017-10-27(中国大陆)
    ◎IMDb评分  8.3/10 from 186,796 users
    ◎豆瓣评分 8.4/10 from 136,138 users
    ◎片  长 163分钟/162分钟(中国大陆)
    ◎导  演 丹尼斯·维伦纽瓦 Denis Villeneuve
    ◎主  演 瑞恩·高斯林 Ryan Gosling
          哈里森·福特 Harrison Ford
          安娜·德·阿玛斯 Ana de Armas
          西尔维娅·侯克斯 Sylvia Hoeks
          罗宾·怀特 Robin Wright
          杰瑞德·莱托 Jared Leto
          戴夫·巴蒂斯塔 Dave Bautista
          麦肯兹·戴维斯 Mackenzie Davis
          卡拉·朱里 Carla Juri
          爱德华·詹姆斯·奥莫斯 Edward James Olmos
          巴克德·阿巴蒂 Barkhad Abdi
          大卫·达斯马齐连 David Dastmalchian
          西娅姆·阿巴斯 Hiam Abbass
          连尼·詹姆斯 Lennie James
          马克·阿诺德 Mark Arnold
          肖恩·杨 Sean Young
    p2503562993.webp.jpg
    ◎简  介

      故事发生在大断电30年后。复制人K(瑞恩·高斯林 Ryan Gosling 饰)是新一代的银翼杀手,在如今的世界里,人类和复制人之间的界限划分的更加明确,复制人从刚一制造出来就被灌输了服务于人类的思想,绝对不被允许产生人类的感情。
      某日,一具女性复制人的遗骨被挖掘了出来,令陆军中尉乔伊(罗宾·怀特 Robin Wright 饰)感到震惊的是,这名女性复制人生前不仅怀过孕,还将孩子生了下来,这个孩子的存在将会彻底破坏政府苦心经营的规则和秩序。乔伊命令K找出这个孩子,并将他杀死。在一间废弃的农场里,K发现了一些线索,然而,这些线索竟然和他被植入的过去的记忆有着千丝万缕的关联。与此同时,复制人尼安德(杰瑞德·莱托 Jared Leto 饰)和他的手下拉芙(西尔维娅·侯克斯 Sylvia Hoeks 饰)也在寻找着这个孩子的下落。
    银翼杀手2049-3D出屏特效字幕-5.1国语2017.BluRay.x264.AC3.DTS-飞影小曹_20180116211.gif 银翼杀手2049-3D出屏特效字幕-5.1国语2017.BluRay.x264.AC3.DTS-飞影小曹_20180116211.gif 银翼杀手2049-3D出屏特效字幕-5.1国语2017.BluRay.x264.AC3.DTS-飞影小曹_20180116212.gif 银翼杀手2049-3D出屏特效字幕-5.1国语2017.BluRay.x264.AC3.DTS-飞影小曹_20180116212.gif 银翼杀手2049-3D出屏特效字幕-5.1国语2017.BluRay.x264.AC3.DTS-飞影小曹_20180116213.gif 银翼杀手2049-3D出屏特效字幕-5.1国语2017.BluRay.x264.AC3.DTS-飞影小曹_20180116213.gif 银翼杀手2049-3D出屏特效字幕-5.1国语2017.BluRay.x264.AC3.DTS-飞影小曹_20180116213.gif

    银翼杀手2049-3D出屏特效字幕-5.1国语2017.BluRay.x264.AC3.DTS-飞影小曹_20180116211.jpg 银翼杀手2049-3D出屏特效字幕-5.1国语2017.BluRay.x264.AC3.DTS-飞影小曹_20180116211.jpg 银翼杀手2049-3D出屏特效字幕-5.1国语2017.BluRay.x264.AC3.DTS-飞影小曹_20180116212.jpg 银翼杀手2049-3D出屏特效字幕-5.1国语2017.BluRay.x264.AC3.DTS-飞影小曹_20180116212.jpg 银翼杀手2049-3D出屏特效字幕-5.1国语2017.BluRay.x264.AC3.DTS-飞影小曹_20180116212.jpg 银翼杀手2049-3D出屏特效字幕-5.1国语2017.BluRay.x264.AC3.DTS-飞影小曹_20180116212.jpg 银翼杀手2049-3D出屏特效字幕-5.1国语2017.BluRay.x264.AC3.DTS-飞影小曹_20180116212.jpg 银翼杀手2049-3D出屏特效字幕-5.1国语2017.BluRay.x264.AC3.DTS-飞影小曹_20180116212.jpg 银翼杀手2049-3D出屏特效字幕-5.1国语2017.BluRay.x264.AC3.DTS-飞影小曹_20180116212.jpg 银翼杀手2049-3D出屏特效字幕-5.1国语2017.BluRay.x264.AC3.DTS-飞影小曹_20180116212.jpg 银翼杀手2049-3D出屏特效字幕-5.1国语2017.BluRay.x264.AC3.DTS-飞影小曹_20180116212.jpg 银翼杀手2049-3D出屏特效字幕-5.1国语2017.BluRay.x264.AC3.DTS-飞影小曹_20180116213.jpg
    General
    Unique ID                                : 196298873161502820879575870497353523207 (0x93ADC9AC6AB0FCD49DF16DD3463E6007)
    Complete name                            : I:\银翼杀手2049-3D出屏特效字幕-5.1长影国语2017.BluRay.x264.AC3.DTS-飞影小曹.mkv
    Format                                   : Matroska
    Format version                           : Version 4 / Version 2
    File size                                : 16.7 GiB
    Duration                                 : 2 h 43 min
    Overall bit rate                         : 14.7 Mb/s
    Encoded date                             : UTC 2018-01-16 05:44:13
    Writing library                          : libebml v1.3.3 + libmatroska v1.4.4 / Lavf52.84.0

    Video
    ID                                       : 1
    Format                                   : AVC
    Format/Info                              : Advanced Video Codec
    Format profile                           : High@L4
    Format settings                          : CABAC / 5 Ref Frames
    Format settings, CABAC                   : Yes
    Format settings, ReFrames                : 5 frames
    Format settings, GOP                     : M=4, N=13
    Codec ID                                 : V_MPEG4/ISO/AVC
    Duration                                 : 2 h 43 min
    Bit rate                                 : 12.0 Mb/s
    Width                                    : 1 920 pixels
    Height                                   : 800 pixels
    Display aspect ratio                     : 2.40:1
    Frame rate mode                          : Constant
    Frame rate                               : 23.976 FPS
    Color space                              : YUV
    Chroma subsampling                       : 4:2:0
    Bit depth                                : 8 bits
    Scan type                                : Progressive
    Bits/(Pixel*Frame)                       : 0.326
    Stream size                              : 13.8 GiB (82%)
    Writing library                          : x264 core 110
    Encoding settings                        : cabac=1 / ref=5 / deblock=1:0:0 / analyse=0x3:0x133 / me=hex / subme=8 / psy=1 / psy_rd=1.00:0.00 / mixed_ref=1 / me_range=16 / chroma_me=0 / trellis=1 / 8x8dct=1 / cqm=0 / deadzone=21,11 / fast_pskip=1 / chroma_qp_offset=-2 / threads=2 / sliced_threads=0 / nr=0 / decimate=1 / interlaced=0 / constrained_intra=0 / bframes=3 / b_pyramid=0 / b_adapt=0 / b_bias=0 / direct=3 / weightb=1 / open_gop=0 / weightp=0 / keyint=13 / keyint_min=7 / scenecut=0 / intra_refresh=0 / rc_lookahead=13 / rc=abr / mbtree=1 / bitrate=12000 / ratetol=1.0 / qcomp=0.00 / qpmin=10 / qpmax=51 / qpstep=4 / ip_ratio=1.41 / aq=1:1.00
    Default                                  : Yes
    Forced                                   : No

    Audio #1
    ID                                       : 2
    Format                                   : AC-3
    Format/Info                              : Audio Coding 3
    Codec ID                                 : A_AC3
    Duration                                 : 2 h 43 min
    Bit rate mode                            : Constant
    Bit rate                                 : 640 kb/s
    Channel(s)                               : 6 channels
    Channel positions                        : Front: L C R, Side: L R, LFE
    Sampling rate                            : 48.0 kHz
    Frame rate                               : 31.250 FPS (1536 SPF)
    Bit depth                                : 16 bits
    Compression mode                         : Lossy
    Stream size                              : 749 MiB (4%)
    Title                                    : 国语音轨
    Language                                 : Chinese
    Service kind                             : Complete Main
    Default                                  : No
    Forced                                   : No

    Audio #2
    ID                                       : 3
    Format                                   : AC-3
    Format/Info                              : Audio Coding 3
    Codec ID                                 : A_AC3
    Duration                                 : 2 h 43 min
    Bit rate mode                            : Constant
    Bit rate                                 : 448 kb/s
    Channel(s)                               : 6 channels
    Channel positions                        : Front: L C R, Side: L R, LFE
    Sampling rate                            : 48.0 kHz
    Frame rate                               : 31.250 FPS (1536 SPF)
    Bit depth                                : 16 bits
    Compression mode                         : Lossy
    Delay relative to video                  : 32 ms
    Stream size                              : 524 MiB (3%)
    Title                                    : 国语音轨
    Language                                 : Chinese
    Service kind                             : Complete Main
    Default                                  : No
    Forced                                   : No

    Audio #3
    ID                                       : 4
    Format                                   : DTS
    Format/Info                              : Digital Theater Systems
    Codec ID                                 : A_DTS
    Duration                                 : 2 h 43 min
    Bit rate mode                            : Constant
    Bit rate                                 : 1 509 kb/s
    Channel(s)                               : 6 channels
    Channel positions                        : Front: L C R, Side: L R, LFE
    Sampling rate                            : 48.0 kHz
    Frame rate                               : 93.750 FPS (512 SPF)
    Bit depth                                : 24 bits
    Compression mode                         : Lossy
    Stream size                              : 1.72 GiB (10%)
    Title                                    : DTS英语音轨
    Language                                 : English
    Default                                  : Yes
    Forced                                   : No
    禁止灌水..附有广告类信息回帖,发现多次或长期灌水者禁言1-N天,请社区某些伸手党及喜欢灌水人员珍惜ID!!!
    游客,如果您要查看本帖隐藏内容请回复

  • TA的每日心情
    开心
    昨天 00:02
  • 签到天数: 1135 天

    [LV.10]以坛为家III

    发表于 2018-1-16 22:41:00 | 显示全部楼层
    好影片要支持!
    回复 支持 反对

    使用道具 举报

  • TA的每日心情
    奋斗
    昨天 10:11
  • 签到天数: 851 天

    [LV.10]以坛为家III

    发表于 2018-1-16 22:56:46 | 显示全部楼层
    估计回复了也是不够级别下载的,但还是感谢一下吧
    回复 支持 反对

    使用道具 举报

  • TA的每日心情
    无聊
    3 小时前
  • 签到天数: 607 天

    [LV.9]以坛为家II

    发表于 2018-1-16 23:00:58 | 显示全部楼层
    这个可以收藏 感谢分享
    回复 支持 反对

    使用道具 举报

  • TA的每日心情
    奋斗
    昨天 09:06
  • 签到天数: 533 天

    [LV.9]以坛为家II

    发表于 2018-1-16 23:09:32 | 显示全部楼层
    谢谢楼主分享!
    回复 支持 反对

    使用道具 举报

  • TA的每日心情
    开心
    昨天 14:03
  • 签到天数: 312 天

    [LV.8]以坛为家I

    发表于 2018-1-16 23:12:50 | 显示全部楼层
    好片子我下载了
    回复 支持 反对

    使用道具 举报

  • TA的每日心情
    开心
    2018-1-16 23:07
  • 签到天数: 9 天

    [LV.3]偶尔看看II

    发表于 2018-1-16 23:16:35 | 显示全部楼层
    thank you for your share!
    回复 支持 反对

    使用道具 举报

  • TA的每日心情
    开心
    昨天 02:02
  • 签到天数: 1174 天

    [LV.10]以坛为家III

     楼主| 发表于 2018-1-16 23:17:55 | 显示全部楼层
    ljw66236 发表于 2018-1-16 22:56
    估计回复了也是不够级别下载的,但还是感谢一下吧

    暂不设权限!
    回复 支持 反对

    使用道具 举报

    您需要登录后才可以回帖 登录 | 立即注册

    本版积分规则

    本站资源均来自互联网,如果侵犯了您的权益请与我们联系,我们将在24小时内删除。

    QQ|申请友链|小黑屋|手机版|Archiver|站长工具|飞影3D论坛  

    GMT+8, 2018-2-22 03:27 , Processed in 0.127348 second(s), 30 queries .

    Powered by Discuz! X3.2

    © 2001-2013 Comsenz Inc.

    ICP备案:黔ICP备14003922号-4
    快速回复 返回顶部 返回列表